Ссылка на приватное зеркало нашего сайта всего за 1$. Внимание количество ограничено!!!

2 сезон

iTunes

1 сезон

1

2 сезон

2 сезон

iTunes

1 сезон

RePack

30

Новинка

ВАЖНО

ИГРА 18+

pack

RePack

MK11
pack

Забери бонус

RePack

jed

!!Акция!!

Alien_Rage

RePack

fifa19

RePack

Assassins Creed: Odyssey

RePack

NEED FOR SPEED™ PAYBACK

4 сезон

9 сезон

Бесстыжие 9 сезон

Все сериалы

все сериалы на PB.wtf

RePack

FAR CRY 5
  

Светлячок / Firefly / Сезон: 1 / Серии: 14 из 14 (Joss Whedon) [2002, Научная фантастика, космический вестерн, BDRip] [DVO] (AXN Sci-Fi / Sony Sci-Fi) pb.wtf

Светлячок через торрент pb.wtf

Раздают: 1 [ 18 KB/s ] Качают: 1 [ 0 KB/s ]
Размер: 8.2 GB | Добавлен: 2 года 6 мес. назад | Торрент скачан:184 раза
Скачать  

29-04-2018 14:51 Светлячок Скачать торрент  

Светлячок / Firefly
Сезон 1 / Season 1Год выпуска: 2002
Страна: США
Жанр: Научная фантастика, космический вестерн
Продолжительность: x15 (14 серий) ~00:41:41
Перевод: Профессиональный (двухголосый, закадровый) (AXN Sci-Fi / Sony Sci-Fi)
Субтитры: Русские (отдельно)

Режиссеры: Joss Whedon (эпизоды 01, 02, 14), Tim Minear (эпизоды 03, 12), Vern Gillum (эпизоды 04, 11), Michael Grossman (эпизод 05), Vondie Curtis Hall (эпизод 06), Marita Grabiak (эпизод 07), David Solomon (эпизод 08), Allan Kroeker (эпизод 09), James Contner (эпизод 10), Thomas J. Wright (эпизод 13)

В ролях: Nathan Fillion (Малкольм «Мэл» Рейнольдс), Gina Torres (Зои Эллейн Уошбёрн), Alan Tudyk (Хобан «Уош» Уошбёрн), Morena Baccarin (Инара Серра), Adam Baldwin (Джейн Кобб), Jewel Staite (Кейуиннит Ли «Кейли» Фрай), Sean Maher (доктор Саймон Тэм), Summer Glau (Ривер Тэм), Ron Glass (Дерриал «Пастор» Бук), Christina Hendricks (Саффрон), Mark A. Sheppard (Баджер), Michael Fairman (Аделай Нишка)

Описание: Капитан Малкольм Рейнольдс — закаленный в боях ветеран галактической гражданской войны, сражавшийся на проигравшей, в итоге, стороне, зарабатывает на жизнь мелкими преступлениями и перевозит грузы на своем корабле «Серенити». Он возглавляет небольшую разношерстную команду, которая порядком смахивает на самую обычную семью — ее члены вечно ссорятся, не соблюдают дисциплину, но никогда не предадут своего капитана и пойдут за ним хоть на край света.:





Качество: BDRip
Формат: AVI
Видео кодек: XviD
Аудио кодек: MP3
Видео: 720x400 (16:9), 25.000 fps, XviD 1.2.1 build 50, ~1508 kbps avg, ~0.209 bit/pixel
Аудио #1: MPEG Layer 3, 48 kHz, 192 kbps CBR, Joint-Stereo | AXN Sci-Fi / Sony Sci-Fi (Cyrillica)
Аудио #2: MPEG Layer 3, 48 kHz, 192 kbps CBR, Joint-Stereo | Original (english)
Субтитры: Русские (отдельно)
General
Complete name                    : ..\Firefly.Season.01.BDRip.AXN-Sci-Fi\Firefly.s01e09.Ariel.BDRip.Rus.Eng.AXN-Sci-Fi-aklsr.avi
Format                           : AVI
Format/Info                      : Audio Video Interleave
File size                        : 560 MiB
Duration                         : 41mn 5s
Overall bit rate                 : 1 905 Kbps
Movie name                       : Firefly: 1.09 - Ариэль
Director                         : @KLSR Released [Video - BDRip; Audio1 - DVBRip AXN Sci-Fi; Audio2 - original]
Writing application              : VirtualDubMod 1.5.10.2 (build 2540/release)
Writing library                  : VirtualDubMod build 2540/release

Video
ID                               : 0
Format                           : MPEG-4 Visual
Format profile                   : Advanced Simple@L5
Format settings, BVOP            : Yes
Format settings, QPel            : No
Format settings, GMC             : No warppoints
Format settings, Matrix          : Default (MPEG)
Codec ID                         : XVID
Codec ID/Hint                    : XviD
Duration                         : 41mn 5s
Bit rate                         : 1 506 Kbps
Width                            : 720 pixels
Height                           : 400 pixels
Display aspect ratio             : 16:9
Frame rate                       : 25.000 fps
Color space                      : YUV
Chroma subsampling               : 4:2:0
Bit depth                        : 8 bits
Scan type                        : Progressive
Bits/(Pixel*Frame)               : 0.209
Stream size                      : 443 MiB (79%)
Writing library                  : XviD 1.2.1 (UTC 2008-12-04)

Audio #1
ID                               : 1
Format                           : MPEG Audio
Format version                   : Version 1
Format profile                   : Layer 3
Mode                             : Joint stereo
Codec ID                         : 55
Codec ID/Hint                    : MP3
Duration                         : 41mn 4s
Bit rate mode                    : Constant
Bit rate                         : 192 Kbps
Channel(s)                       : 2 channels
Sampling rate                    : 48.0 KHz
Stream size                      : 56.4 MiB (10%)
Alignment                        : Aligned on interleaves
Interleave, duration             : 40 ms (1.00 video frame)
Interleave, preload duration     : 504 ms

Audio #2
ID                               : 2
Format                           : MPEG Audio
Format version                   : Version 1
Format profile                   : Layer 3
Mode                             : Joint stereo
Codec ID                         : 55
Codec ID/Hint                    : MP3
Duration                         : 41mn 5s
Bit rate mode                    : Constant
Bit rate                         : 192 Kbps
Channel(s)                       : 2 channels
Sampling rate                    : 48.0 KHz
Stream size                      : 56.4 MiB (10%)
Alignment                        : Aligned on interleaves
Interleave, duration             : 40 ms (1.00 video frame)
Interleave, preload duration     : 504 ms
скриншот  скриншот  скриншот  скриншот  
Сэмпл (1:12 мин., 20,0 МБ)
Перевод и озвучание — студия «Кириллица» для телеканала Sony Sci-Fi (экс- AXN Sci-Fi). (Роли озвучивали Александр Дасевич и Инга Сметанина)
Исходник видео — BD-Remux
Видеофайлы совместимы с бытовыми DVD-плеерами
Размер релиза — 2 x DVD5
Всего серий в сезоне 14, но некоторые издания первую серию (которая в два раза больше) считают за две и в итоге пишут, что всех их 15.
Исходный звук был взят из захваченного со спутника транспортного потока.
Запись звука, рип видео, сведéние Kvin_akl.
pb.wtf



Скачать Светлячок через торрент http://aklsr.narod.ru/poster/firefly_s01_poster.jpg Скачать фильм Светлячок через торрент бесплантно в хорошем качестве Описание: Капитан Малкольм Рейнольдс — закаленный в боях ветеран галактической гражданской войны, сражавшийся на проигравшей, в итоге, ... 9.8 10 9
Info! Золотая раздача, скачанное не засчитывается.
Торрент: Зарегистрирован [2018-04-29 14:51] · скачан: 184 раз
Статус: √ проверено
Размер: 8.2 GB
Как cкачать? Как скачать Светлячок через торрент | qTorrent

% Раздел Тема Автор DL S | L
Зарубежные сериалы [ 39.96 GB ] Светлячок / Firefly / Сезон: 1 / Серии: 1-14 из 14 [2002 BDRip 720p] [MVO] killermax2013 Скачать
3 | 0
Зарубежные сериалы [ 43.5 GB ] Светлячок / Firefly / Сезон: 1 / Серии: 1-14 из 14 [2002-2003 BDRip-HEVC 1080p ] DVO [Tycoon] +AVO [Ю.Сербин] bober100 Скачать
1 | 0

28-11-2019 20:33  

Отключить всю рекламу на сайте

29-04-2018 15:29 Светлячок Скачать торрент  

Ох. Та это Серенити). Классный сериал. Фильм ваще "Бомба")pb.wtf



29-04-2018 16:59 Светлячок Скачать торрент  

Заир писал(а):

Ох. Та это Серенити). Классный сериал. Фильм ваще "Бомба")

Это не Серенити, это Сериал Светлячок. А миссия Серенити - это полнометражный фильм концовка сериала.

P.S. Как по мне, один из лучших фантастических сериалов. Очень жаль, что после первого сезона закрыли.pb.wtf



04-11-2020 15:51 Светлячок Скачать торрент  

Перевод полный звездец. Крайне не советую. Автор будто с помощью интуиции переводилpb.wtf



    Дорогой пользователь! Огромная просьба, поблагодарите релизера, оцените раздачу и оставьте свои комментарий, если Вы скачали Светлячок через торрент бесплатно! Внесите свою лепту в развитие PiratBit!
    Комментировать посты могут только пользователи прошедшие не сложную регистрацию
    Показать сообщения:    

    Светлячок через торрент
    Скачать бесплатно Светлячок
    Светлячок скачать торрент
    Светлячок смотреть онлайн
    Cкачать фильм Светлячок бесплатно
    Светлячок скачать торрент в хорошем качестве
    Светлячок смотреть онлайн бесплатно в хорошем качестве


    Вы не можете начинать темы
    Вы не можете отвечать на сообщения
    Вы не можете редактировать свои сообщения
    Вы не можете удалять свои сообщения
    Вы не можете голосовать в опросах
    Вы не можете прикреплять файлы к сообщениям
    Вы можете скачивать файлы