Ссылка на приватное зеркало нашего сайта всего за 1$. Внимание количество ограничено!!!

2 сезон

iTunes

1 сезон

1

2 сезон

2 сезон

iTunes

1 сезон

RePack

30

Ultimate

ВАЖНО

ИГРА 18+

pack

RePack

MK11
pack

Забери бонус

RePack

jed

!!Акция!!

Alien_Rage

RePack

fifa19

RePack

Assassins Creed: Odyssey

RePack

NEED FOR SPEED™ PAYBACK

4 сезон

9 сезон

Бесстыжие 9 сезон

Все сериалы

все сериалы на PB.wtf

RePack

FAR CRY 5
  

Мафия убивает только летом / La mafia uccide solo d'estate / The Mafia Kills Only in Summer (Пьерфранческо Дилиберто) [2013, комедия, криминал, Blu-Ray 1080p] [MVO] (СВ Студия) pb.wtf

Мафия убивает только летом через торрент pb.wtf

Размер: 17.54 GB | Добавлен: 2 года 7 мес. назад | Торрент скачан:30 раз
Скачать  

29-04-2018 15:42 Мафия убивает только летом Скачать торрент  

Мафия убивает только летом / La mafia uccide solo d'estate / The Mafia Kills Only in Summer


Год выпуска: 2013
Страна: Италия
Жанр: комедия, криминал
Продолжительность: 01:29:14
Перевод: Профессиональный (многоголосый закадровый) [СВ Студия]
Cубтитры: Русские, Итальянские

Режиссер: Пьерфранческо Дилиберто / Pierfrancesco Diliberto

В ролях: Alex Bisconti, Alexander de Simone, Кристиана Капотонди / Cristiana Capotondi, Пьерфранческо Дилиберто / Pif, Ginevra Antona, Клаудио Джоэ / Claudio Gioè, Барбара Табита / Barbara Tabita, Rosario Lisma, Энцо Саломоне / Enzo Salomone, Маурицио Маркетти / Maurizio Marchetti, Антонио Альвеарио / Antonio Alveario, Антонино Брускетта / Antonino Bruschetta, Тото Боргезе / Totò Borgese, Доменико Чентаморе / Domenico Centamore и др.

Описание: Наблюдательный мальчик Артуро интересуется особенностями преступной жизни родного Палермо. Его собственная жизнь строится вокруг двух полюсов: с одной стороны — безответное чувство к прекрасной и недоступной Флоре, с другой — кровавые разборки мафии периода 1980–90-х годов. Все герои фильма вынуждены жить двойной жизнью: их дни рождения, влюбленности, важные моменты жизненного выбора проходят на фоне покушений, угроз, убийств, в зоне действия правил мафиозного «кодекса чести». Артуро — и в детстве, и в зрелом возрасте — пытается бросить вызов этой раздвоенности, следуя зову сердца и чувству гражданского долга.

rating

Качество видео: Blu-Ray 1080p
Формат видео: BDAV
Видео: MPEG-4 AVC , 1,78:1 = 16:9, 1920х1080 / 22000 kbps / 23,976 fps
Аудио 1: DTS-HD , 5.1 / 48 kHz / 2138 kbps - СВ Студия
Аудио 2: DTS-HD , 5.1 / 48 kHz / 2117 kbps - Italian
Общее
Уникальный идентификатор : 230090748217795347809982334903180477411 (0xAD19DDBEC0CC6AA58BA7093F2B6E43E3)
Полное имя : D:\ANNA\Films\La mafia uccide solo d'estate\Film\La_Mafia_Uccide_Solo_d_Estate.mkv
Формат : Matroska
Версия формата : Version 1
Размер файла : 1,59 Гбайт
Продолжительность : 1 ч. 29 м.
Общий поток : 2543 Кбит/сек
Дата кодирования : UTC 2015-03-15 10:20:09
Программа кодирования : mkvmerge v2.1.0 ('Another Place To Fall') built on Aug 19 2007 13:40:07
Библиотека кодирования : libebml v0.7.7 + libmatroska v0.8.1
TITLE : La mafia uccide solo d'estate (2013) FullHD 1080p HQF

Видео
Идентификатор : 1
Формат : AVC
Формат/Информация : Advanced Video Codec
Профиль формата : Main@L4.0
Параметр CABAC формата : Да
Параметр ReFrames формата : 4 кадра
Идентификатор кодека : V_MPEG4/ISO/AVC
Продолжительность : 1 ч. 29 м.
Битрейт : 1900 Кбит/сек
Ширина : 1920 пикселей
Высота : 1036 пикселей
Соотношение сторон : 1,85:1
Режим частоты кадров : Постоянный
Частота кадров : 23,976 кадра/сек
Цветовое пространство : YUV
Субдискретизация насыщенности : 4:2:0
Битовая глубина : 8 бит
Тип развёртки : Прогрессивная
Бит/(Пиксели*Кадры) : 0.040
Размер потока : 1,15 Гбайт (73%)
Библиотека кодирования : x264 core 130 r2273 b3065e6
Настройки программы : cabac=1 / ref=1 / deblock=1:0:0 / analyse=0x1:0x111 / me=hex / subme=2 / psy=1 / psy_rd=1.00:0.00 / mixed_ref=0 / me_range=16 / chroma_me=1 / trellis=0 / 8x8dct=0 / cqm=0 / deadzone=21,11 / fast_pskip=1 / chroma_qp_offset=0 / threads=12 / lookahead_threads=4 / sliced_threads=0 / nr=0 / decimate=1 / interlaced=0 / bluray_compat=0 / constrained_intra=0 / bframes=3 / b_pyramid=2 / b_adapt=1 / b_bias=0 / direct=1 / weightb=1 / open_gop=0 / weightp=1 / keyint=240 / keyint_min=24 / scenecut=40 / intra_refresh=0 / rc_lookahead=10 / rc=2pass / mbtree=1 / bitrate=1900 / ratetol=1.0 / qcomp=0.60 / qpmin=0 / qpmax=69 / qpstep=4 / cplxblur=20.0 / qblur=0.5 / vbv_maxrate=20000 / vbv_bufsize=25000 / nal_hrd=none / ip_ratio=1.40 / aq=1:1.00
Язык : English
Default : Да
Forced : Нет
Основные цвета : BT.709
Характеристики трансфера : BT.709
Коэффициенты матрицы : BT.709
colour_range : Limited

Аудио
Идентификатор : 2
Формат : AC-3
Формат/Информация : Audio Coding 3
Расширение режима : CM (complete main)
Параметр Endianness формата : Big
Идентификатор кодека : A_AC3
Продолжительность : 1 ч. 29 м.
Вид битрейта : Постоянный
Битрейт : 640 Кбит/сек
Каналы : 6 каналов
Расположение каналов : Front: L C R, Side: L R, LFE
Частота : 48,0 КГц
Битовая глубина : 16 бит
Метод сжатия : С потерями
Размер потока : 409 Мбайт (25%)
Язык : Italian
Default : Да
Forced : Нет

Текст
Идентификатор : 3
Формат : UTF-8
Идентификатор кодека : S_TEXT/UTF8
Идентификатор кодека/Информация : UTF-8 Plain Text
Язык : Russian
Default : Да
Forced : Нет

Меню
00:00:00.000 : en:Chapter 1
00:05:26.368 : en:Chapter 2
00:09:57.388 : en:Chapter 3
00:15:32.306 : en:Chapter 4
00:21:15.524 : en:Chapter 5
00:25:02.543 : en:Chapter 6
00:30:31.955 : en:Chapter 7
00:36:17.008 : en:Chapter 8
00:44:23.369 : en:Chapter 9
00:51:38.095 : en:Chapter 10
00:53:07.184 : en:Chapter 11
00:58:32.718 : en:Chapter 12
01:07:02.810 : en:Chapter 13
01:11:33.790 : en:Chapter 14
01:16:14.111 : en:Chapter 15
01:22:26.275 : en:Chapter 16
скриншот  скриншот  скриншот  скриншот  
pb.wtf



Скачать Мафия убивает только летом через торрент http://i97.fastpic.ru/big/2017/1107/9d/178882f94676f9c26c01690ab2cb0f9d.jpg Скачать фильм Мафия убивает только летом через торрент бесплантно в хорошем качестве Описание: Наблюдательный мальчик Артуро интересуется особенностями преступной жизни родного Палермо. Его собственная жизнь строится вокруг ... 10 10 3
Info! Золотая раздача, скачанное не засчитывается.
Торрент: Зарегистрирован [2018-04-29 17:43] · скачан: 30 раз
Статус: √ проверено
Размер: 17.54 GB
Как cкачать? Как скачать Мафия убивает только летом через торрент | qTorrent

28-11-2019 20:33  

Отключить всю рекламу на сайте

    Дорогой пользователь! Огромная просьба, поблагодарите релизера, оцените раздачу и оставьте свои комментарий, если Вы скачали Мафия убивает только летом через торрент бесплатно! Внесите свою лепту в развитие PiratBit!
    Комментировать посты могут только пользователи прошедшие не сложную регистрацию
    Показать сообщения:    

    Мафия убивает только летом через торрент
    Скачать бесплатно Мафия убивает только летом
    Мафия убивает только летом скачать торрент
    Мафия убивает только летом смотреть онлайн
    Cкачать фильм Мафия убивает только летом бесплатно
    Мафия убивает только летом скачать торрент в хорошем качестве
    Мафия убивает только летом смотреть онлайн бесплатно в хорошем качестве


    Вы не можете начинать темы
    Вы не можете отвечать на сообщения
    Вы не можете редактировать свои сообщения
    Вы не можете удалять свои сообщения
    Вы не можете голосовать в опросах
    Вы не можете прикреплять файлы к сообщениям
    Вы можете скачивать файлы