Мега распродажа FORZA HORIZON 4 ULTIMATE+ВСЕ DLC+ОНЛАЙН всего за 499р. 349 руб. (супер цена). Внимание количество ограничено!!!

iTunes

1+1

iTunes

мы

iTunes

1

1 сезон

Чернобыль

1 сезон

Ральф против интернета

Лицензия

ПШазам

8 сезон

Игра престолов

Лицензия

30
pack

ВАЖНО

!!Акция!!

Alien_RageХит недели

RePack

Resident Evil 21

ИГРА 18+

pack

RePack

Metro:Exodus

!!Акция!!

Alien_Rage

RePack

fifa19

RePack

Assassins Creed: Odyssey

RePack

NEED FOR SPEED™ PAYBACK

3 сезон

9 сезон

Бесстыжие 9 сезон

Все сериалы

все сериалы на PB.wtf

RePack

FAR CRY 5
Ребята, катастрофически не хватает 2730р. для оплаты серверов за ИЮНЬ (всвязи с блокировками трафик упал в 3 раза), 1-2р., выручайте.
  

На всю катушку / Una botta di vita (Энрико Олдоини) [1988 г., Комедия, DVDRip-AVC, Профессиональный (многоголосый)] pb.wtf

На всю катушку через торрент pb.wtf

Размер: 2.33 GB | Добавлен: 1 год 2 мес. назад | Торрент скачан:13 раз
Скачать  

29-04-2018 18:23 На всю катушку Скачать торрент  

На всю катушку / Una botta di vita
Год выпуска: 1988
Страна: Франция, Италия
Жанр: Комедия
Продолжительность: 01:38:41
Перевод: Профессиональный (многоголосый)

Режиссер: Энрико Олдоини

rating

В ролях: Альберто Сорди, Бернар Блие, Андреа Ферреоль, Витторио Каприоли, Альберто Соррентино, Елена Фальгери, Жозет Ньери, Рене Балангеро, Жерар Гарди, Жан Майнарди, Клод Паскаль, Жан-Пьерр Бессон, Чантал Гарин, Шарль Мийо

Описание: Пенсионеры Мондардини и Баттистини однажды вечером совершенно спонтанно решают забыть на время про надоевшие будни и про свой провинциальный городок в Эмилии. И утром они бросают нехитрые пожитки в автомобиль, чтобы поехать на побережье, где живет старый приятель Мондардини. Путешественникам не удается застать того в живых…

Качество: DVDRip-AVC
Формат: MKV
Видео кодек: MPEG4
Аудио кодек: AC3
Видео: MPEG-4 AVC, 3000 Кбит/с, 672x576@954x576, 25 кадров/сек
Аудио#1: Русский (AC3, 2 ch, 192 Кбит/с, 48 КГц)
Аудио#2: Итальянский (AC3, 2 ch, 192 Кбит/с, 48 КГц)
Релиз от:




raw [info]: 672x576p 64:45 @ 25/1 fps (cfr)
x264 [info]: using SAR=64/45
x264 [info]: using cpu capabilities: MMX2 SSE2Fast LZCNT
x264 [info]: profile High, level 4.1
x264 [info]: frame I:862 Avg QP:19.94 size: 62835
x264 [info]: frame P:28240 Avg QP:21.84 size: 30802
x264 [info]: frame B:118924 Avg QP:23.49 size: 10899
x264 [info]: consecutive B-frames: 0.8% 1.0% 7.2% 7.6% 5.8% 76.1% 1.1% 0.2% 0.2% 0.0% 0.0% 0.0% 0.0% 0.0% 0.0% 0.0% 0.0%
-----
Общее
Уникальный идентификатор : 205781942820363900725342586802394317133 (0x9AD0291B1004BA11BCF95CA15927414D)
Полное имя : D:\ExKinoRay\HA.BcIo.KATYSHKY.1988.DVDRip-AVC.ExKinoRay.mkv
Формат : Matroska
Версия формата : Version 2
Размер файла : 2,33 Гбайт
Продолжительность : 1 ч. 38 м.
Общий поток : 3386 Кбит/сек
Дата кодирования : UTC 2018-04-29 13:57:47
Программа кодирования : mkvmerge v7.8.0 ('River Man') 32bit built on Apr 3 2015 12:11:22
Библиотека кодирования : libebml v1.3.1 + libmatroska v1.4.2

Видео
Идентификатор : 1
Формат : AVC
Формат/Информация : Advanced Video Codec
Профиль формата : High@L4.1
Параметр CABAC формата : Да
Параметр ReFrames формата : 14 кадров
Идентификатор кодека : V_MPEG4/ISO/AVC
Продолжительность : 1 ч. 38 м.
Битрейт : 3000 Кбит/сек
Ширина : 672 пикселя
Высота : 576 пикселей
Соотношение сторон : 5:3
Соотношение сторон в оригинале : 5:3
Режим частоты кадров : Постоянный
Частота кадров : 25,000 кадров/сек
Цветовое пространство : YUV
Субдискретизация насыщенности : 4:2:0
Битовая глубина : 8 бит
Тип развёртки : Прогрессивная
Бит/(Пиксели*Кадры) : 0.310
Размер потока : 2,02 Гбайт (87%)
Библиотека кодирования : x264 core 148 r2638 7599210
Настройки программы : cabac=1 / ref=14 / deblock=1:-2:-2 / analyse=0x3:0x133 / me=umh / subme=10 / psy=1 / psy_rd=1.05:0.15 / mixed_ref=1 / me_range=32 / chroma_me=1 / trellis=2 / 8x8dct=1 / cqm=0 / deadzone=21,11 / fast_pskip=0 / chroma_qp_offset=-3 / threads=4 / lookahead_threads=1 / sliced_threads=0 / nr=0 / decimate=0 / interlaced=0 / bluray_compat=0 / constrained_intra=0 / bframes=16 / b_pyramid=2 / b_adapt=2 / b_bias=0 / direct=3 / weightb=1 / open_gop=0 / weightp=2 / keyint=250 / keyint_min=25 / scenecut=40 / intra_refresh=0 / rc=2pass / mbtree=0 / bitrate=3000 / ratetol=1.0 / qcomp=0.60 / qpmin=0 / qpmax=69 / qpstep=4 / cplxblur=20.0 / qblur=0.5 / ip_ratio=1.40 / pb_ratio=1.30 / aq=1:1.00
Язык : English
Default : Да
Forced : Нет
Цветовой диапазон : Limited
Основные цвета : BT.601 NTSC
Характеристики трансфера : BT.601
Коэффициенты матрицы : BT.601

Аудио #1
Идентификатор : 2
Формат : AC-3
Формат/Информация : Audio Coding 3
Расширение режима : CM (complete main)
Параметр Endianness формата : Big
Идентификатор кодека : A_AC3
Продолжительность : 1 ч. 38 м.
Вид битрейта : Постоянный
Битрейт : 192 Кбит/сек
Каналы : 2 канала
Расположение каналов : Front: L R
Частота : 48,0 КГц
Частота кадров : 31,250 кадров/сек (1536 spf)
Метод сжатия : С потерями
Размер потока : 136 Мбайт (6%)
Язык : Russian
Default : Да
Forced : Нет

Аудио #2
Идентификатор : 3
Формат : AC-3
Формат/Информация : Audio Coding 3
Расширение режима : CM (complete main)
Параметр Endianness формата : Big
Идентификатор кодека : A_AC3
Продолжительность : 1 ч. 38 м.
Вид битрейта : Постоянный
Битрейт : 192 Кбит/сек
Каналы : 2 канала
Расположение каналов : Front: L R
Частота : 48,0 КГц
Частота кадров : 31,250 кадров/сек (1536 spf)
Метод сжатия : С потерями
Размер потока : 136 Мбайт (6%)
Язык : Italian
Default : Нет
Forced : Нет

pb.wtf



Скачать На всю катушку через торрент http://b.radikal.ru/b15/1804/9b/68cca44d26fb.jpg Скачать фильм На всю катушку через торрент бесплантно в хорошем качестве Описание: Пенсионеры Мондардини и Баттистини однажды вечером совершенно спонтанно решают забыть на время про надоевшие будни и про свой ... 10 10 1
Info! Золотая раздача, скачанное не засчитывается.
Торрент: Зарегистрирован [2018-04-29 18:23] · скачан: 13 раз
Статус: √ проверено
Размер: 2.33 GB
Как cкачать? Как скачать На всю катушку через торрент | qTorrent


>> Регистрируемся здесь <<






Отзывы и комментарии о схеме читаем и пишем здесь: ---> Отзывы и комментарии о схеме

Новые благодарочки в телеграм довольных пользователей:
скриншот   скриншот   скриншот   скриншот   скриншот

29-04-2018 19:45 На всю катушку Скачать торрент  

Топик был перенесен из форума Оформление раздач (Кино, Видео и ТВ) в форум Фильмы до 2000 г.


-Lexx-pb.wtf



    Дорогой пользователь! Огромная просьба, поблагодарите релизера, оцените раздачу и оставьте свои комментарий, если Вы скачали На всю катушку через торрент бесплатно! Внесите свою лепту в развитие PiratBit!
    Комментировать посты могут только пользователи прошедшие не сложную регистрацию
    Показать сообщения:    

    На всю катушку через торрент
    Скачать бесплатно На всю катушку
    На всю катушку скачать торрент
    На всю катушку смотреть онлайн
    Cкачать фильм На всю катушку бесплатно
    На всю катушку скачать торрент в хорошем качестве
    На всю катушку смотреть онлайн бесплатно в хорошем качестве


    Вы не можете начинать темы
    Вы не можете отвечать на сообщения
    Вы не можете редактировать свои сообщения
    Вы не можете удалять свои сообщения
    Вы не можете голосовать в опросах
    Вы не можете прикреплять файлы к сообщениям
    Вы можете скачивать файлы