новый адрес пиратбит piratbit
Мега распродажа FORZA HORIZON 4 ULTIMATE+ВСЕ DLC+ОНЛАЙН всего за 499р. 349 руб. (супер цена). Внимание количество ограничено!!!

iTunes

1+1

iTunes

мы

iTunes

1

iTunes

Чернобыль

iTunes

Ральф против интернета

Лицензия

ПШазам

Лицензия

Игра престолов

Лицензия

30
pack

ВАЖНО

!!Акция!!

Alien_RageХит недели

RePack

Resident Evil 21

ИГРА 18+

pack

RePack

Metro:Exodus

!!Акция!!

Alien_Rage

RePack

fifa19

RePack

Assassins Creed: Odyssey

RePack

NEED FOR SPEED™ PAYBACK

3 сезон

9 сезон

Бесстыжие 9 сезон

Все сериалы

все сериалы на PB.wtf

RePack

FAR CRY 5
Ребята, катастрофически не хватает 1900р. для оплаты серверов за Октябрь (всвязи с блокировками трафик упал в 3 раза), 1-2р., выручайте.
  

Каникулы президента (Илья Шерстобитов) [2018, комедия, WEB-DLRip-AVC] [iTunes] - ExKinoRay pb.wtf

Каникулы президента через торрент pb.wtf

Раздают: 4 [ 194 KB/s ]
Размер: 1.65 GB | Добавлен: 1 год 6 мес. назад | Торрент скачан:2083 раза
Скачать  

30-04-2018 02:10 Каникулы президента Скачать торрент  

«Есть дороги, а есть пути!»Информация о фильме
Название: Каникулы президента
Год выхода: 2018
Жанр: Комедия
Страна: Россия
Студия: Андрианова Кино
Продолжительность: 01:38:47
Перевод: Не требуется | iTunes

Режиссер: Илья Шерстобитов
В ролях: Дмитрий Грачев, Анна Цуканова-Котт, Настасья Самбурская, Евгений Сидихин, Кирилл Васильев, Гоша Куценко, Дмитрий Дибров, Роза Хаируллина, Роман Попов, Владимир Носик

О фильме: Устав от рутины, Президент решает отправиться на каникулы в гордом одиночестве, чтобы отдохнуть, а заодно свободно пообщаться с народом. Понимая, что остаться инкогнито и улизнуть от заботливых коллег будет сложно, он прибегает к услугам гримера. Но его новый облик точь-в-точь совпадает с наружностью Валерия из N-ска, который скрывается от коллекторов по путевке матери в крымском санатории…

rating

Файл
Формат: MKV
Качество: WEB-DLRip-AVC
Видео: MPEG-4 AVC, 1024x426 (2.40:1), 23.976 fps, 2010 Kbps, 0.192 bit/pixel
Аудио: 48 kHz, AC3, 5.1 ch, ~384 kbps avg - Rus
General
Unique ID : 203973013820564782233847646718728978363 (0x9973C6052B9DF4D19E9F085997A1BFBB)
Complete name : D:\KANIKULY.PREZIDENTA.2018.AVC.ExKinoRay.mkv
Format : Matroska
Format version : Version 2
File size : 1.65 GiB
Duration : 1 h 38 min
Overall bit rate : 2 396 kb/s
Movie name : Каникулы президента 2018 from ExKinoRay
Encoded date : UTC 2018-04-30 01:16:05
Writing application : mkvmerge v5.6.0 ('Kenya Kane') built on May 27 2012 16:44:04
Writing library : libebml v1.2.3 + libmatroska v1.3.0

Video
ID : 1
Format : AVC
Format/Info : Advanced Video Codec
Format profile : High@L4.1
Format settings, CABAC : Yes
Format settings, ReFrames : 10 frames
Codec ID : V_MPEG4/ISO/AVC
Duration : 1 h 38 min
Bit rate : 2 010 kb/s
Width : 1 024 pixels
Height : 426 pixels
Display aspect ratio : 2.40:1
Frame rate mode : Constant
Frame rate : 23.976 (23976/1000) FPS
Color space : YUV
Chroma subsampling : 4:2:0
Bit depth : 8 bits
Scan type : Progressive
Bits/(Pixel*Frame) : 0.192
Stream size : 1.36 GiB (82%)
Title : Enigma
Writing library : x264 core 152 r2851 ba24899
Encoding settings : cabac=1 / ref=10 / deblock=1:-2:-2 / analyse=0x3:0x113 / me=umh / subme=10 / psy=1 / psy_rd=1.05:0.10 / mixed_ref=1 / me_range=32 / chroma_me=1 / trellis=2 / 8x8dct=1 / cqm=0 / deadzone=21,11 / fast_pskip=0 / chroma_qp_offset=-3 / threads=12 / lookahead_threads=2 / sliced_threads=0 / nr=0 / decimate=0 / interlaced=0 / bluray_compat=0 / constrained_intra=0 / bframes=9 / b_pyramid=2 / b_adapt=2 / b_bias=0 / direct=3 / weightb=1 / open_gop=0 / weightp=2 / keyint=240 / keyint_min=23 / scenecut=40 / intra_refresh=0 / rc_lookahead=40 / rc=2pass / mbtree=0 / bitrate=2010 / ratetol=1.0 / qcomp=0.65 / qpmin=0 / qpmax=51 / qpstep=4 / cplxblur=20.0 / qblur=0.5 / vbv_maxrate=50000 / vbv_bufsize=62500 / nal_hrd=none / filler=0 / ip_ratio=1.40 / pb_ratio=1.30 / aq=1:1.00
Language : English
Default : Yes
Forced : No
Color range : Limited
Color primaries : BT.709
Transfer characteristics : BT.709
Matrix coefficients : BT.709

Audio
ID : 2
Format : AC-3
Format/Info : Audio Coding 3
Mode extension : CM (complete main)
Format settings, Endianness : Big
Codec ID : A_AC3
Duration : 1 h 38 min
Bit rate mode : Constant
Bit rate : 384 kb/s
Channel(s) : 6 channels
Channel positions : Front: L C R, Side: L R, LFE
Sampling rate : 48.0 kHz
Frame rate : 31.250 FPS (1536 spf)
Compression mode : Lossy
Stream size : 271 MiB (16%)
Title : iTumes
Language : Russian
Default : Yes
Forced : No
Релиз от:

Автор релиза: pb.wtf



Скачать Каникулы президента через торрент http://i104.fastpic.ru/big/2018/0429/a5/feb6e610971570720368f80dfa85a6a5.jpg Скачать фильм Каникулы президента через торрент бесплантно в хорошем качестве О фильме: Устав от рутины, Президент решает отправиться на каникулы в гордом одиночестве, чтобы отдохнуть, а заодно свободно пообщаться с ... 9.4 10 33
Info! Золотая раздача, скачанное не засчитывается.
Торрент: Зарегистрирован [2018-04-30 02:10] · скачан: 2 083 раз
Статус: √ проверено
Размер: 1.65 GB
Как cкачать? Как скачать Каникулы президента через торрент | qTorrent


>> Регистрируемся здесь <<






Отзывы и комментарии о схеме читаем и пишем здесь: ---> Отзывы и комментарии о схеме

Новые благодарочки в телеграм довольных пользователей:
скриншот   скриншот   скриншот   скриншот   скриншот

30-04-2018 02:18 Каникулы президента Скачать торрент  

Enigma2010, Спасибо у вас забираю!pb.wtf



    Дорогой пользователь! Огромная просьба, поблагодарите релизера, оцените раздачу и оставьте свои комментарий, если Вы скачали Каникулы президента через торрент бесплатно! Внесите свою лепту в развитие PiratBit!
    Комментировать посты могут только пользователи прошедшие не сложную регистрацию
    Показать сообщения:    

    Каникулы президента через торрент
    Скачать бесплатно Каникулы президента
    Каникулы президента скачать торрент
    Каникулы президента смотреть онлайн
    Cкачать фильм Каникулы президента бесплатно
    Каникулы президента скачать торрент в хорошем качестве
    Каникулы президента смотреть онлайн бесплатно в хорошем качестве


    Вы не можете начинать темы
    Вы не можете отвечать на сообщения
    Вы не можете редактировать свои сообщения
    Вы не можете удалять свои сообщения
    Вы не можете голосовать в опросах
    Вы не можете прикреплять файлы к сообщениям
    Вы можете скачивать файлы