новый адрес пиратбит piratbit
Мега распродажа FORZA HORIZON 4 ULTIMATE+ВСЕ DLC+ОНЛАЙН всего за 499р. 349 руб. (супер цена). Внимание количество ограничено!!!

iTunes

1+1

iTunes

мы

iTunes

1

iTunes

Чернобыль

iTunes

Ральф против интернета

Лицензия

ПШазам

Лицензия

Игра престолов

Лицензия

30
pack

ВАЖНО

!!Акция!!

Alien_RageХит недели

RePack

Resident Evil 21

ИГРА 18+

pack

RePack

Metro:Exodus

!!Акция!!

Alien_Rage

RePack

fifa19

RePack

Assassins Creed: Odyssey

RePack

NEED FOR SPEED™ PAYBACK

3 сезон

9 сезон

Бесстыжие 9 сезон

Все сериалы

все сериалы на PB.wtf

RePack

FAR CRY 5
Ребята, катастрофически не хватает 1900р. для оплаты серверов за Октябрь (всвязи с блокировками трафик упал в 3 раза), 1-2р., выручайте.
  

Сирена / Siren / Сезон: 1 / Серии: 1-10 из 10 (Ник Копус, Джей Карас, Скотт Чарльз Стюарт) [2018, Фэнтези, драма, WEB-DLRip] MVO [NewStudio] pb.wtf

Сирена через торрент pb.wtf

Раздают: 2 [ 0 KB/s ]
Размер: 5.19 GB | Добавлен: 1 год 5 мес. назад | Торрент скачан:135 раз
Скачать  

30-04-2018 09:52 Сирена Скачать торрент  

Сирена / Siren
Год выпуска: 2018
Страна: США
Жанр: Фэнтези, драма
Продолжительность: ~ 00:43:00 серия
Перевод: Профессиональный (многоголосый) |
Субтитры: отсутствуют

Режиссер: Ник Копус, Джей Карас, Скотт Чарльз Стюарт

rating

В ролях:

Элайн Пауэлл, Фола Эванс-Экинбола, Сибонгиле Мламбо, Йен Вердён, Рина Оуэн, Рон Юань, Тэмми Гиллис, Кертис Льюм, Чад Рук, Энтони Харрисон и др.

Описание:

По легенде возле Бристольской бухты когда-то жили русалки. Однажды здесь появляется таинственная зеленоглазая девушка. Кому-то встреча с ней принесет смерть, а для кого-то она приоткроет старые тайны на первый взгляд безобидного провинциального города.

Качество: WEB-DLRip
Формат: AVI

Видео: XviD, ~ 1500 Кбит/с, 720x400
Аудио#1: Russian: 48 kHz, MP3, 2/0 (L,R) ch, ~128 kbps avg |Многоголосый закадровый, NewStudio|
Аудио#2: English: 48 kHz, MP3, 2/0 (L,R) ch, ~128 kbps avg
скриншот   скриншот   скриншот   скриншот  

Общее
Полное имя : D:\Сирена (сезон 1) Siren (2018) WEB-DLRip - NewStudio\Siren.S01E01.WEB-DLRip.Rus.Eng.DV.NewStudio.avi
Формат : AVI
Формат/Информация : Audio Video Interleave
Размер файла : 583 Мбайт
Продолжительность : 45 м. 57 с.
Общий поток : 1772 Кбит/сек
Название фильма : Siren.S01E01.WEB-DLRip.Rus.Eng.DV.NewStudio / NNM-Club
Программа кодирования : VirtualDubModRus 1.5.10.2 (build 2542/release)
Библиотека кодирования : VirtualDubMod build 2542/release

Видео
Идентификатор : 0
Формат : MPEG-4 Visual
Профиль формата : Advanced Simple@L5
Параметр BVOP формата : 2
Параметр QPel формата : Нет
Параметр GMC формата : Без точки перехода
Параметр матрицы формата : Default (H.263)
Идентификатор кодека : XVID
Идентификатор кодека/Подсказка : XviD
Продолжительность : 45 м. 57 с.
Битрейт : 1502 Кбит/сек
Ширина : 720 пикселей
Высота : 400 пикселей
Соотношение сторон : 16:9
Частота кадров : 23,976 (24000/1001) кадра/сек
Цветовое пространство : YUV
Субдискретизация насыщенности : 4:2:0
Битовая глубина : 8 бит
Тип развёртки : Прогрессивная
Метод сжатия : С потерями
Бит/(Пиксели*Кадры) : 0.218
Размер потока : 494 Мбайт (85%)
Библиотека кодирования : XviD 67

Аудио #1
Идентификатор : 1
Формат : MPEG Audio
Версия формата : Version 1
Профиль формата : Layer 3
Режим : Joint stereo
Расширение режима : MS Stereo
Идентификатор кодека : 55
Идентификатор кодека/Подсказка : MP3
Продолжительность : 45 м. 57 с.
Вид битрейта : Постоянный
Битрейт : 128 Кбит/сек
Каналы : 2 канала
Частота : 48,0 КГц
Метод сжатия : С потерями
Размер потока : 42,1 Мбайт (7%)
Выравнивание : Соединение по промежуткам
Продолжительность промежутка : 42 мс. (1,00 видеокадр)
Время предзагрузки промежутка : 504 мс.

Аудио #2
Идентификатор : 2
Формат : MPEG Audio
Версия формата : Version 1
Профиль формата : Layer 3
Режим : Joint stereo
Расширение режима : MS Stereo
Идентификатор кодека : 55
Идентификатор кодека/Подсказка : MP3
Продолжительность : 45 м. 57 с.
Вид битрейта : Постоянный
Битрейт : 128 Кбит/сек
Каналы : 2 канала
Частота : 48,0 КГц
Метод сжатия : С потерями
Размер потока : 42,1 Мбайт (7%)
Выравнивание : Соединение по промежуткам
Продолжительность промежутка : 42 мс. (1,00 видеокадр)
Время предзагрузки промежутка : 504 мс.

Когда раздача ведётся путём добавления новых серий, при каждом добавлении создётся новый торрент. Чтобы начать докачку новой серии, пользователям необходимо сделать следующее:
(1) остановить скачивание,
(2) удалить старый торрент у себя из клиента (старые серии удалять не надо),
(3) скачать новый торрент и запустить его у себя в клиенте вместо старого, при этом указать клиенту путь в старую папку, куда и должно происходить скачивание новых серий.
Ваш клиент при этом должен произвести хеширование (проверку) старой папки (если не производит сам - помогите ему сделать это), и будет докачивать только те серии, которых у вас ещё нет. Старые серии при этом не удаляются, а продолжают раздаваться!
Eсли вы уже удалили старые серии, то предотвратить повторную закачку старых серий можно, отжав галочку в соответсвующих местах при запуске нового торрента. По возможности, желательно не удалять старые серии как можно дольше, чтобы релизёр не столько продолжал раздавать старые серии, а смог сконцентрироваться на новых.
pb.wtf



Скачать Сирена через торрент http://pic1.kartinco.top/images/11/geb9a.jpg Скачать фильм Сирена через торрент бесплантно в хорошем качестве Описание: По легенде возле Бристольской бухты когда-то жили русалки. Однажды здесь появляется таинственная зеленоглазая девушка. Кому-то ... 10 10 8
Торрент: Зарегистрирован [2018-05-31 14:47] · скачан: 135 раз
Статус: √ проверено
Размер: 5.19 GB
Как cкачать? Как скачать Сирена через торрент | qTorrent

% Раздел Тема Автор DL S | L
Зарубежные сериалы [ 46.98 GB ] Сирена / Siren / Сезон: 2 / Серии: 1-16 из 16 [2019 WEB-DL 1080p] DUB [Кириллица] bober100 Скачать
1 | 0
Зарубежные сериалы [ 31.87 GB ] Сирена / Siren / Сезон 1 / Серии 1-10 из 10 [2018 WEB-DL 1080p] MVO [TVShows] bober100 Скачать
1 | 0
Зарубежные сериалы [ 11.57 GB ] Сирена / Siren / Сезон 1 / Серии 1-10 из 10 [2018 WEB-DL 720p] MVO [TVShows] bober100 Скачать
1 | 0
Зарубежные сериалы [ 45.97 GB ] Сирена / Siren / Сезон: 2 / Серии: 1-16 из 16 [2019 WEB-DL 1080p] [MVO] killermax2013 Скачать
1 | 1
Зарубежные сериалы [ 23.64 GB ] Сирена / Siren / Сезон: 2 / Серии: 1-8 из 10 [2019 WEB-DL 1080p] [MVO] killermax2013 Скачать
1 | 0
Зарубежные сериалы [ 10.9 GB ] Сирена / Siren / Сезон 1 / Серии 1-10 из 10 [2018 WEB-DL 720p] MVO [AlexFilm] bober100 Скачать
1 | 0
Зарубежные сериалы [ 4.82 GB ] Сирена / Siren / Сезон 1 / Серии 1-10 из 10 [2018 WEB-DLRip] MVO [AlexFilm] bober100 Скачать
1 | 0


>> Регистрируемся здесь <<






Отзывы и комментарии о схеме читаем и пишем здесь: ---> Отзывы и комментарии о схеме

Новые благодарочки в телеграм довольных пользователей:
скриншот   скриншот   скриншот   скриншот   скриншот

31-05-2018 16:31 Сирена Скачать торрент  

По началу сериал был нечего но с 6 серии прям муть какая то. Автору спс.pb.wtf



    Дорогой пользователь! Огромная просьба, поблагодарите релизера, оцените раздачу и оставьте свои комментарий, если Вы скачали Сирена через торрент бесплатно! Внесите свою лепту в развитие PiratBit!
    Комментировать посты могут только пользователи прошедшие не сложную регистрацию
    Показать сообщения:    

    Сирена через торрент
    Скачать бесплатно Сирена
    Сирена скачать торрент
    Сирена смотреть онлайн
    Cкачать фильм Сирена бесплатно
    Сирена скачать торрент в хорошем качестве
    Сирена смотреть онлайн бесплатно в хорошем качестве


    Вы не можете начинать темы
    Вы не можете отвечать на сообщения
    Вы не можете редактировать свои сообщения
    Вы не можете удалять свои сообщения
    Вы не можете голосовать в опросах
    Вы не можете прикреплять файлы к сообщениям
    Вы можете скачивать файлы