новый адрес
Ссылка на приватное зеркало всего за 1$. Внимание количество ограничено!!!

iTunes

1+1

iTunes

мы

WEB-DL

1

iTunes

Чернобыль

iTunes

Ральф против интернета

Лицензия

ПШазам

Лицензия

Оно 2

Лицензия

30
pack

Вам бонус

ВАЖНО

!!Акция!!

Alien_RageХит недели

RePack

Resident Evil 21

ИГРА 18+

pack

RePack

jed

!!Акция!!

Alien_Rage

RePack

fifa19

RePack

Assassins Creed: Odyssey

RePack

NEED FOR SPEED™ PAYBACK

3 сезон

9 сезон

Бесстыжие 9 сезон

Все сериалы

все сериалы на PB.wtf

RePack

FAR CRY 5
Ребята, катастрофически не хватает 1900р. для оплаты серверов за Октябрь (всвязи с блокировками трафик упал в 3 раза), 1-2р., выручайте.
  

Глубокое синее море 2 / Deep Blue Sea 2 (Дэрин Скотт) [2018, ужасы, фантастика, боевик, BDRip-AVC] MVO [HDrezka Studio] - ExKinoRay pb.wtf

Глубокое синее море 2 через торрент pb.wtf

Раздают: 1 [ 0 KB/s ]
Размер: 2.33 GB | Добавлен: 1 год 7 мес. назад | Торрент скачан:463 раза
Скачать  

30-04-2018 12:18 Глубокое синее море 2 Скачать торрент  

Информация о фильме
Название: Глубокое синее море 2
Оригинальное название: Deep Blue Sea 2
Год выхода: 2018
Жанр: Ужасы, фантастика, боевик
Страна: США
Продолжительность: 01:33:59
Перевод: Профессиональный (многоголосый, закадровый) | HDrezka Studio
Субтитры: Английские
Режиссер: Дэрин Скотт
В ролях: Майкл Бич, Даниэль Савре, Роб Майес, Дэррон Каллиган, Лили Спангенберг, Нэйтан Линн, Ким Систер, Джино Ли, Джереми Боадо

Описание:
Миллиардер Карл Дюран разрабатывает лекарство для повышения интеллекта, поскольку считает, что у человечества нет шансов против нейросетей будущего. С этой целью он построил комплекс в открытом море, где проводит эксперименты на бычьих акулах, которые вскоре докажут эффективность лекарства и устроят экспериментаторам веселую жизнь.

rating

Файл
Формат: MKV
Качество: BDRip-AVC
Видео: MPEG-4 AVC, 1024x576 (16:9), 23.976 fps, ~ 2910 kbps avg, 0.206 bit/pixel
Аудио 1: 48 kHz, AC3, 2.0, 192 Kbps | RUS |
Аудио 2: 48 kHz, AC3, 5.1, 448 Kbps | ENG |

Сохранены оригинальные чаптеры как на Blu-Ray.

Без какой-либо рекламы!
General
Unique ID : 251495004458800444936487598922415043276 (0xBD342D0E03D0FA77824738EA468972CC)
Complete name : D:\Glubokoe.sinee.more.2.2018.MVO.BDRip.AVC.ExKinoRay.mkv
Format : Matroska
Format version : Version 2
File size : 2.33 GiB
Duration : 1 h 33 min
Overall bit rate : 3 551 kb/s
Movie name : Deep Blue Sea 2 (2018) from ExKinoRay
Encoded date : UTC 2018-04-30 11:36:21
Writing application : mkvmerge v5.6.0 ('Kenya Kane') built on May 27 2012 16:44:04
Writing library : libebml v1.2.3 + libmatroska v1.3.0

Video
ID : 1
Format : AVC
Format/Info : Advanced Video Codec
Format profile : High@L4.1
Format settings, CABAC : Yes
Format settings, ReFrames : 14 frames
Codec ID : V_MPEG4/ISO/AVC
Duration : 1 h 33 min
Bit rate : 2 910 kb/s
Width : 1 024 pixels
Height : 576 pixels
Display aspect ratio : 16:9
Frame rate mode : Constant
Frame rate : 23.976 (23976/1000) FPS
Color space : YUV
Chroma subsampling : 4:2:0
Bit depth : 8 bits
Scan type : Progressive
Bits/(Pixel*Frame) : 0.206
Stream size : 1.86 GiB (80%)
Title : Enigma
Writing library : x264 core 152 r2851 ba24899
Encoding settings : cabac=1 / ref=14 / deblock=1:-3:-3 / analyse=0x3:0x113 / me=umh / subme=10 / psy=1 / psy_rd=0.95:0.05 / mixed_ref=1 / me_range=32 / chroma_me=1 / trellis=2 / 8x8dct=1 / cqm=0 / deadzone=21,11 / fast_pskip=0 / chroma_qp_offset=-3 / threads=12 / lookahead_threads=3 / sliced_threads=0 / nr=0 / decimate=0 / interlaced=0 / bluray_compat=0 / constrained_intra=0 / bframes=14 / b_pyramid=2 / b_adapt=2 / b_bias=0 / direct=3 / weightb=1 / open_gop=0 / weightp=2 / keyint=240 / keyint_min=23 / scenecut=40 / intra_refresh=0 / rc_lookahead=40 / rc=2pass / mbtree=0 / bitrate=2910 / ratetol=1.0 / qcomp=0.60 / qpmin=0 / qpmax=51 / qpstep=4 / cplxblur=20.0 / qblur=0.5 / vbv_maxrate=50000 / vbv_bufsize=62500 / nal_hrd=none / filler=0 / ip_ratio=1.40 / pb_ratio=1.30 / aq=3:0.80
Language : English
Default : Yes
Forced : No
Color range : Limited
Color primaries : BT.709
Transfer characteristics : BT.709
Matrix coefficients : BT.709

Audio #1
ID : 2
Format : AC-3
Format/Info : Audio Coding 3
Mode extension : CM (complete main)
Format settings, Endianness : Big
Codec ID : A_AC3
Duration : 1 h 33 min
Bit rate mode : Constant
Bit rate : 192 kb/s
Channel(s) : 2 channels
Channel positions : Front: L R
Sampling rate : 48.0 kHz
Frame rate : 31.250 FPS (1536 spf)
Compression mode : Lossy
Stream size : 129 MiB (5%)
Title : MVO (HDrezka Studio)
Language : Russian
Default : Yes
Forced : No

Audio #2
ID : 3
Format : AC-3
Format/Info : Audio Coding 3
Mode extension : CM (complete main)
Format settings, Endianness : Big
Codec ID : A_AC3
Duration : 1 h 33 min
Bit rate mode : Constant
Bit rate : 448 kb/s
Channel(s) : 6 channels
Channel positions : Front: L C R, Side: L R, LFE
Sampling rate : 48.0 kHz
Frame rate : 31.250 FPS (1536 spf)
Compression mode : Lossy
Stream size : 301 MiB (13%)
Language : English
Default : No
Forced : No

Text
ID : 4
Format : UTF-8
Codec ID : S_TEXT/UTF8
Codec ID/Info : UTF-8 Plain Text
Language : English
Default : No
Forced : No

Menu
00:00:00.000 : en:Chapter 01
00:09:24.730 : en:Chapter 02
00:19:46.310 : en:Chapter 03
00:30:53.017 : en:Chapter 04
00:40:03.692 : en:Chapter 05
00:49:44.439 : en:Chapter 06
01:00:18.281 : en:Chapter 07
01:10:10.372 : en:Chapter 08
01:19:39.441 : en:Chapter 09
01:30:03.106 : en:Chapter 10
Релиз от:

Автор релиза: pb.wtf



Скачать Глубокое синее море 2 через торрент http://b.radikal.ru/b17/1804/c2/e2868ab1234f.jpg Скачать фильм Глубокое синее море 2 через торрент бесплантно в хорошем качестве Описание:Миллиардер Карл Дюран разрабатывает лекарство для повышения интеллекта, поскольку считает, что у человечества нет шансов против ... 6.6 10 7
Info! Золотая раздача, скачанное не засчитывается.
Торрент: Зарегистрирован [2018-04-30 12:18] · скачан: 463 раз
Статус: √ проверено
Размер: 2.33 GB
Как cкачать? Как скачать Глубокое синее море 2 через торрент | qTorrent

28-11-2019 20:33  

Отключить всю рекламу на сайте

02-05-2018 19:26 Глубокое синее море 2 Скачать торрент  

Полнейшая низкопробная шляпа. Жалкая пародия на 1 часть pb.wtf



04-05-2018 19:24 Глубокое синее море 2 Скачать торрент  

Внимание! см. рейтинг кинопоиск и имдб))))) лучше не качать?!))))pb.wtf



    Дорогой пользователь! Огромная просьба, поблагодарите релизера, оцените раздачу и оставьте свои комментарий, если Вы скачали Глубокое синее море 2 через торрент бесплатно! Внесите свою лепту в развитие PiratBit!
    Комментировать посты могут только пользователи прошедшие не сложную регистрацию
    Показать сообщения:    

    Глубокое синее море 2 через торрент
    Скачать бесплатно Глубокое синее море 2
    Глубокое синее море 2 скачать торрент
    Глубокое синее море 2 смотреть онлайн
    Cкачать фильм Глубокое синее море 2 бесплатно
    Глубокое синее море 2 скачать торрент в хорошем качестве
    Глубокое синее море 2 смотреть онлайн бесплатно в хорошем качестве


    Вы не можете начинать темы
    Вы не можете отвечать на сообщения
    Вы не можете редактировать свои сообщения
    Вы не можете удалять свои сообщения
    Вы не можете голосовать в опросах
    Вы не можете прикреплять файлы к сообщениям
    Вы можете скачивать файлы