Anonymous, добрый день, присоединяйтесь к нам в Telegram!, здесь всегда актуальный адрес сайта, оперативная поддержка и многое другое!

>

5.6

iTunes

7.4

iTunes

5.7

MVO

1

7.7

1 сезон

6.8

iTunes

7.3

1 сезон

13

6.7

1 сезон

8.3

RePack

30

ULTIMATE

pack

9.9

Лицензия

ВАЖНО

ИГРА 18+

pack

7.3

RePack

MK11

7.7

RePack

jed

7.8

RePack

fifa19

8.5

RePack

RDR2

RePack

NEED FOR SPEED™ PAYBACK

4 сезон

9 сезон

Бесстыжие 9 сезон

Все сериалы

все сериалы на PB.wtf

RePack

FAR CRY 5

Anonymous, добрый день, мы катастрофически не успеваем собрать деньги на оплату серверов, помогите нам пожалуйста 5,10,15р., для нас важна любая помощь . В качестве благодарности мы отключим Вам всю рекламу на сайте (укажите свой ник в строку Ваше имя)!

×
  
Magnet ссылка

Родина / Чужой среди своих / Homeland / Сезон: 7 / Серии: 1-12 из 12 (Лесли Линка Глаттер, Майкл Куэста, Дэниэл Эттиэс) [2018, триллер, драма, детектив, WEB-DLRip] DVO [SunshineStudio] pb.wtf

Родина через торрент pb.wtf

Размер: 7.7 GB | Добавлен: 3 года 5 мес. назад | Торрент скачан:25 раз
Смотреть онлайн Родина | Скачать    Ребята, помогите собрать деньги на оплату серверов!!!

30-04-2018 13:02 Родина Скачать торрент  


Родина / Чужой среди своих / Homeland
Год выпуска: 2018
Страна: США
Жанр: триллер, драма, детектив
Продолжительность: ~ 00:43:00
Перевод: Любительский двухголосый | скриншот  
Субтитры: Нет

Режиссер: Лесли Линка Глаттер, Майкл Куэста, Дэниэл Эттиэс

rating

В ролях:

Клэр Дэйнс, Дэмиэн Льюис, Мэнди Пэтинкин, Морена Баккарин, Дэвид Хэрвуд, Руперт Френд, Джексон Пэйс, Морган Сэйлор, Ф. Мюррэй Абрахам, Диего Клаттенхофф

Описание:

Противостояние главного террориста Америки и блондинки из ЦРУ закончено. Но это еще не конец. Броуди убит, Соул уволен из ЦРУ, а Кэрри получила новое задание и отправляется в одну из самых горячих точек Ближнего Востока. Любовь к родине и чувство долга против экстремизма и террора.

Качество: WEB-DLRip
Формат: AVI

Видео: XviD, ~ 1500 Кбит/с, 720x400
Аудио: Русский (AC3, 2 ch, 192 Кбит/с)
скриншот  скриншот  скриншот  

Общее
Полное имя : D:\Homeland.S07.400p.SunshineStudio\Homeland.S07E01.400p.SunshineStudio.avi
Формат : AVI
Формат/Информация : Audio Video Interleave
Размер файла : 740 Мбайт
Продолжительность : 1 ч. 0 м.
Общий поток : 1701 Кбит/сек
Программа кодирования : VirtualDubMod 1.5.10.3 | www.virtualdub-fr.org || (build 2550/release)
Библиотека кодирования : VirtualDubMod build 2550/release

Видео
Идентификатор : 0
Формат : MPEG-4 Visual
Профиль формата : Advanced Simple@L5
Параметр BVOP формата : 1
Параметр QPel формата : Нет
Параметр GMC формата : Без точки перехода
Параметр матрицы формата : Default (H.263)
Идентификатор кодека : XVID
Идентификатор кодека/Подсказка : XviD
Продолжительность : 1 ч. 0 м.
Битрейт : 1500 Кбит/сек
Ширина : 720 пикселей
Высота : 400 пикселей
Соотношение сторон : 16:9
Частота кадров : 23,976 (23976/1000) кадра/сек
Цветовое пространство : YUV
Субдискретизация насыщенности : 4:2:0
Битовая глубина : 8 бит
Тип развёртки : Прогрессивная
Метод сжатия : С потерями
Бит/(Пиксели*Кадры) : 0.217
Размер потока : 652 Мбайт (88%)
Библиотека кодирования : XviD 1.2.1 (UTC 2008-12-04)

Аудио
Идентификатор : 1
Формат : AC-3
Формат/Информация : Audio Coding 3
Расширение режима : CM (complete main)
Параметр Endianness формата : Big
Идентификатор кодека : 2000
Продолжительность : 1 ч. 0 м.
Вид битрейта : Постоянный
Битрейт : 192 Кбит/сек
Каналы : 2 канала
Расположение каналов : Front: L R
Частота : 48,0 КГц
Частота кадров : 31,250 кадров/сек (1536 spf)
Метод сжатия : С потерями
Размер потока : 83,5 Мбайт (11%)
Выравнивание : Разделение по промежуткам
Продолжительность промежутка : 42 мс. (1,00 видеокадр)
Время предзагрузки промежутка : 500 мс.

pb.wtf



Скачать Родина через торрент http://img12.lostpic.net/2018/02/11/05df8fb477662a09b81794b20451d855.jpg Скачать, смотреть онлайн Родина бесплантно в хорошем качестве Описание: Противостояние главного террориста Америки и блондинки из ЦРУ закончено. Но это еще не конец. Броуди убит, Соул уволен из ЦРУ, а ... 7.8 10 4
Торрент: Зарегистрирован [2018-04-30 13:02] · скачан: 25 раз
Статус: √ проверено
Размер: 7.7 GB
Как cкачать? Как скачать Родина через торрент | UTorrent

% Раздел Тема Автор DL S | L
Родина / Чужой среди своих / Homeland [ 8.06 GB ] Родина / Чужой среди своих / Homeland / Сезон: 7 / Серии: 1-12 из 12 [2018 WEB-DLRip] MVO [Lostfilm] bober100 Скачать
1 | 0
Родина / Чужой среди своих / Homeland [ 8.15 GB ] Родина / Чужой среди своих / Homeland / Сезон: 7 / Серии: 1-12 из 12 [2018 WEB-DLRip] MVO [Амедиа] bober100 Скачать
1 | 0
Родина / Чужой среди своих / Homeland [ 13.63 GB ] Родина / Чужой среди своих / Homeland / Сезон: 7 / Серии: 1-12 из 12 [2018 WEB-DL 720p] DVO [SunshineStudio] bober100 Скачать
1 | 0
Родина / Чужой среди своих / Homeland [ 53.65 GB ] Родина / Чужой среди своих / Homeland / Сезон: 7 / Серии: 1-12 из 12 [2018 WEB-DL 1080p] MVO [Амедиа] bober100 Скачать
1 | 0
Родина / Чужой среди своих / Homeland [ 16.89 GB ] Родина / Чужой среди своих / Homeland / Сезон: 7 / Серии: 1-12 из 12 [2018 WEB-DL 720p] MVO [Amedia] bober100 Скачать
1 | 0
Родина / Чужой среди своих / Homeland [ 7.16 GB ] Родина / Чужой среди своих / Homeland / Сезон: 7 / Серии: 1-12 из 12 [2018 WEB-DLRip] MVO [Hamsterstudio] bober100 Скачать
1 | 0

28-11-2019 20:33  

Отключить всю рекламу на сайте

    Дорогой пользователь! Огромная просьба, поблагодарите релизера, оцените раздачу и оставьте свои комментарий, если Вы скачали Родина через торрент бесплатно!
    Комментировать посты могут только пользователи прошедшие не сложную регистрацию
    Показать сообщения:    

    Родина через торрент
    Скачать бесплатно Родина
    Родина скачать торрент
    Родина смотреть онлайн
    Cкачать фильм Родина бесплатно
    Родина скачать торрент в хорошем качестве
    Родина смотреть онлайн бесплатно в хорошем качестве


    Вы не можете начинать темы
    Вы не можете отвечать на сообщения
    Вы не можете редактировать свои сообщения
    Вы не можете удалять свои сообщения
    Вы не можете голосовать в опросах
    Вы не можете прикреплять файлы к сообщениям
    Вы можете скачивать файлы