Ссылка на приватное зеркало нашего сайта всего за 1$. Внимание количество ограничено!!!

2 сезон

iTunes

1 сезон

1

iTunes

iTunes

iTunes

1 сезон

RePack

30

ИГРА 18+

pack

ВАЖНО

!!Акция!!

Alien_RageХит недели

RePack

MK11
pack

Забери бонус

RePack

jed

!!Акция!!

Alien_Rage

RePack

fifa19

RePack

Assassins Creed: Odyssey

RePack

NEED FOR SPEED™ PAYBACK

4 сезон

9 сезон

Бесстыжие 9 сезон

Все сериалы

все сериалы на PB.wtf

RePack

FAR CRY 5
  

Мама-детектив / Сезон: 1 / Серии: 1-12 из 12 [2013, Комедийный детектив, HDTVRip] pb.wtf

Мама-детектив через торрент pb.wtf

Размер: 8.7 GB | Добавлен: 2 года 5 мес. назад | Торрент скачан:34 раза
Скачать  

30-04-2018 13:25 Мама-детектив Скачать торрент  

Мама-детектив
Год выпуска: 2013
Страна: Россия
Жанр: Комедийный детектив
Продолжительность: ~ 00:50:00
Перевод: Не требуется
Субтитры: отсутствуют

rating

В ролях:

Инга Оболдина, Кирилл Плетнёв, Григорий Зельцер, Инна Гинкевич, Руслан Спояло, Максим Ратинер, Мария Сурова, Татьяна Рыбинец, Александр Чередник, Виталий Герасимов, Александр Луканичев, Дмитрий Мазуров, Екатерина Маликова, Алексей Семченков, Татьяна Ипполитова, Анна Каменкова, Михаил Богдасаров, Лянка Грыу, Татьяна Тимакова, Игорь Филиппов, Сергей Костылев, Михаил Шульц

Описание:

Инспектор полиции и прекрасный работник, а также мать двоих сыновей и привлекательная женщина. Ее профессиональный стиль - придавать минимум значения материальным уликам, результатам экспертиз и анализов. Ее главное оружие в поимке преступников – интуиция. Каждый раз она сталкивается с головоломками и тайнами, которые будут проникать также в ее личную жизнь, где и без того не все гладко.

Качество: HDTVRip
Формат: AVI

Видео: XviD, ~ 1800 Кбит/с, 720x400
Аудио: Русский (AC3, 2 ch, 192 Кбит/с)
скриншот   скриншот   скриншот   скриншот  

Общее
Полное имя : D:\Mama.detektiv.HDTVRip.GeneralFilm\Mama.detektiv.01.HDTVRip.GeneralFilm.avi
Формат : AVI
Формат/Информация : Audio Video Interleave
Размер файла : 736 Мбайт
Продолжительность : 51 м. 29 с.
Общий поток : 1997 Кбит/сек
Программа кодирования : VirtualDubMod 1.5.10.3 (build 2550/release)
Библиотека кодирования : VirtualDubMod build 2550/release

Видео
Идентификатор : 0
Формат : MPEG-4 Visual
Профиль формата : Advanced Simple@L5
Параметр BVOP формата : 1
Параметр QPel формата : Нет
Параметр GMC формата : Без точки перехода
Параметр матрицы формата : Выборочная
Идентификатор кодека : XVID
Идентификатор кодека/Подсказка : XviD
Продолжительность : 51 м. 29 с.
Битрейт : 1795 Кбит/сек
Ширина : 720 пикселей
Высота : 400 пикселей
Соотношение сторон : 16:9
Частота кадров : 25,000 кадров/сек
Цветовое пространство : YUV
Субдискретизация насыщенности : 4:2:0
Битовая глубина : 8 бит
Тип развёртки : Прогрессивная
Метод сжатия : С потерями
Бит/(Пиксели*Кадры) : 0.249
Размер потока : 661 Мбайт (90%)
Библиотека кодирования : XviD 73

Аудио
Идентификатор : 1
Формат : AC-3
Формат/Информация : Audio Coding 3
Расширение режима : CM (complete main)
Параметр Endianness формата : Big
Идентификатор кодека : 2000
Продолжительность : 51 м. 29 с.
Вид битрейта : Постоянный
Битрейт : 192 Кбит/сек
Каналы : 2 канала
Расположение каналов : Front: L R
Частота : 48,0 КГц
Частота кадров : 31,250 кадров/сек (1536 spf)
Метод сжатия : С потерями
Размер потока : 70,7 Мбайт (10%)
Выравнивание : Разделение по промежуткам
Продолжительность промежутка : 40 мс. (1,00 видеокадр)
Время предзагрузки промежутка : 500 мс.

pb.wtf



Скачать Мама-детектив через торрент http://img12.lostpic.net/2018/04/30/c77a94d68f9c66434483f370aaa4dac9.jpg Скачать фильм Мама-детектив через торрент бесплантно в хорошем качестве Описание: Инспектор полиции и прекрасный работник, а также мать двоих сыновей и привлекательная женщина. Ее стиль - ... 10 10 2
Торрент: Зарегистрирован [2018-04-30 13:25] · скачан: 34 раз
Статус: √ проверено
Размер: 8.7 GB
Как cкачать? Как скачать Мама-детектив через торрент | qTorrent

% Раздел Тема Автор DL S | L
Наши сериалы [ 29.42 GB ] Одесса-мама / Жемчужина у моря / Сезон: 1 / Серии: 1-12 из 12 [2012 HDTV 1080i] bober100 Скачать
3 | 0
Наши сериалы [ 8.15 GB ] Мама- / Сезон: 1 / Серии: 1-12 из 12 [2013 Комедийный WEB-DLRip] bober100 Скачать
1 | 0
Наши сериалы [ 25.19 GB ] Мама- / Сезон: 1 / Серии: 1-12 из 12 [2013 Комедийный HDTV 1080i] bober100 Скачать
1 | 0
Наши сериалы [ 7.03 GB ] Мама- / Сезон: 1 / Серии: 1-12 из 12 [2013 Комедийный SATRip] bober100 Скачать
1 | 0

28-11-2019 20:33  

Отключить всю рекламу на сайте

    Дорогой пользователь! Огромная просьба, поблагодарите релизера, оцените раздачу и оставьте свои комментарий, если Вы скачали Мама-детектив через торрент бесплатно! Внесите свою лепту в развитие PiratBit!
    Комментировать посты могут только пользователи прошедшие не сложную регистрацию
    Показать сообщения:    

    Мама-детектив через торрент
    Скачать бесплатно Мама-детектив
    Мама-детектив скачать торрент
    Мама-детектив смотреть онлайн
    Cкачать фильм Мама-детектив бесплатно
    Мама-детектив скачать торрент в хорошем качестве
    Мама-детектив смотреть онлайн бесплатно в хорошем качестве


    Вы не можете начинать темы
    Вы не можете отвечать на сообщения
    Вы не можете редактировать свои сообщения
    Вы не можете удалять свои сообщения
    Вы не можете голосовать в опросах
    Вы не можете прикреплять файлы к сообщениям
    Вы можете скачивать файлы