Ссылка на приватное зеркало нашего сайта всего за 1$. Внимание количество ограничено!!!

2 сезон

iTunes

1 сезон

1

iTunes

iTunes

iTunes

1 сезон

RePack

30

ИГРА 18+

pack

ВАЖНО

!!Акция!!

Alien_RageХит недели

RePack

MK11
pack

Забери бонус

RePack

jed

!!Акция!!

Alien_Rage

RePack

fifa19

RePack

Assassins Creed: Odyssey

RePack

NEED FOR SPEED™ PAYBACK

4 сезон

9 сезон

Бесстыжие 9 сезон

Все сериалы

все сериалы на PB.wtf

RePack

FAR CRY 5
  

Мама-детектив / Сезон: 1 / Серии: 1-12 из 12 [2013, Комедийный детектив, HDTV 1080i] pb.wtf

Мама-детектив через торрент pb.wtf

Размер: 25.19 GB | Добавлен: 2 года 5 мес. назад | Торрент скачан:6 раз
Скачать  

30-04-2018 20:21 Мама-детектив Скачать торрент  

Мама-детектив
Год выпуска: 2013
Страна: Россия
Жанр: Комедийный детектив
Продолжительность: ~ 00:50:00
Перевод: Не требуется
Субтитры: отсутствуют

rating

В ролях:

Инга Оболдина, Кирилл Плетнёв, Григорий Зельцер, Инна Гинкевич, Руслан Спояло, Максим Ратинер, Мария Сурова, Татьяна Рыбинец, Александр Чередник, Виталий Герасимов, Александр Луканичев, Дмитрий Мазуров, Екатерина Маликова, Алексей Семченков, Татьяна Ипполитова, Анна Каменкова, Михаил Богдасаров, Лянка Грыу, Татьяна Тимакова, Игорь Филиппов, Сергей Костылев, Михаил Шульц

Описание:

Инспектор полиции и прекрасный работник, а также мать двоих сыновей и привлекательная женщина. Ее профессиональный стиль - придавать минимум значения материальным уликам, результатам экспертиз и анализов. Ее главное оружие в поимке преступников – интуиция. Каждый раз она сталкивается с головоломками и тайнами, которые будут проникать также в ее личную жизнь, где и без того не все гладко.

Качество: HDTV 1080i
Формат: MPEG-TS

Видео: AVC, ~ 4800 Кбит/с, 1920x1080
Аудио#1: Русский: AC3, 2 ch, 384 Кбит/с
Аудио#2: Русский: MP2, 2 ch, 192 Кбит/с
скриншот   скриншот   скриншот   скриншот  

Общее
Идентификатор : 1 (0x1)
Полное имя : D:\Mama.detektiv.HDTV(1080i).GeneralFilm\Mama.detektiv.01.HDTV(1080i).GeneralFilm.ts
Формат : MPEG-TS
Размер файла : 1,99 Гбайт
Продолжительность : 51 м. 29 с.
Режим общего битрейта : Переменный
Общий поток : 5544 Кбит/сек

Видео
Идентификатор : 4121 (0x1019)
Идентификатор меню : 80 (0x50)
Формат : AVC
Формат/Информация : Advanced Video Codec
Профиль формата : Main@L4
Параметр CABAC формата : Да
Параметр RefFrames формата : 3 кадра
Идентификатор кодека : 27
Продолжительность : 51 м. 29 с.
Битрейт : 4688 Кбит/сек
Ширина : 1920 пикселей
Высота : 1080 пикселей
Соотношение сторон : 16:9
Частота кадров : 25,000 кадров/сек
Стандарт вещания : Component
Цветовое пространство : YUV
Субдискретизация насыщенности : 4:2:0
Битовая глубина : 8 бит
Тип развёртки : Чересстрочная
Метод сохранения типа развёртки : Раздельные поля
Порядок развёртки : Верхнее поле первое
Бит/(Пиксели*Кадры) : 0.090
Размер потока : 1,69 Гбайт (85%)
Цветовой диапазон : Limited
Основные цвета : BT.709
Характеристики трансфера : BT.709
Коэффициенты матрицы : BT.709

Аудио #1
Идентификатор : 4124 (0x101C)
Идентификатор меню : 80 (0x50)
Формат : AC-3
Формат/Информация : Audio Coding 3
Расширение режима : CM (complete main)
Параметр Endianness формата : Big
Идентификатор кодека : 6
Продолжительность : 51 м. 29 с.
Вид битрейта : Постоянный
Битрейт : 384 Кбит/сек
Каналы : 6 каналов
Расположение каналов : Front: L C R, Side: L R, LFE
Частота : 48,0 КГц
Частота кадров : 31,250 кадров/сек (1536 spf)
Метод сжатия : С потерями
Задержка видео : -80 мс.
Размер потока : 141 Мбайт (7%)
Язык : Russian

Аудио #2
Идентификатор : 4125 (0x101D)
Идентификатор меню : 80 (0x50)
Формат : MPEG Audio
Версия формата : Version 1
Профиль формата : Layer 2
Идентификатор кодека : 3
Продолжительность : 51 м. 29 с.
Вид битрейта : Постоянный
Битрейт : 192 Кбит/сек
Каналы : 2 канала
Частота : 48,0 КГц
Метод сжатия : С потерями
Задержка видео : -80 мс.
Размер потока : 70,7 Мбайт (3%)
Язык : Russian

pb.wtf



Скачать Мама-детектив через торрент http://img12.lostpic.net/2018/04/30/c77a94d68f9c66434483f370aaa4dac9.jpg Скачать фильм Мама-детектив через торрент бесплантно в хорошем качестве Описание: Инспектор полиции и прекрасный работник, а также мать двоих сыновей и привлекательная женщина. Ее стиль - ... 10 10 3
Info! Золотая раздача, скачанное не засчитывается.
Торрент: Зарегистрирован [2018-04-30 20:21] · скачан: 6 раз
Статус: √ проверено
Размер: 25.19 GB
Как cкачать? Как скачать Мама-детектив через торрент | qTorrent

% Раздел Тема Автор DL S | L
Наши сериалы [ 29.42 GB ] Одесса-мама / Жемчужина у моря / Сезон: 1 / Серии: 1-12 из 12 [2012 HDTV 1080i] bober100 Скачать
3 | 0
Наши сериалы [ 8.15 GB ] Мама- / Сезон: 1 / Серии: 1-12 из 12 [2013 Комедийный WEB-DLRip] bober100 Скачать
1 | 0
Наши сериалы [ 8.7 GB ] Мама- / Сезон: 1 / Серии: 1-12 из 12 [2013 Комедийный HDTVRip] bober100 Скачать
1 | 0
Наши сериалы [ 7.03 GB ] Мама- / Сезон: 1 / Серии: 1-12 из 12 [2013 Комедийный SATRip] bober100 Скачать
1 | 0

28-11-2019 20:33  

Отключить всю рекламу на сайте

    Дорогой пользователь! Огромная просьба, поблагодарите релизера, оцените раздачу и оставьте свои комментарий, если Вы скачали Мама-детектив через торрент бесплатно! Внесите свою лепту в развитие PiratBit!
    Комментировать посты могут только пользователи прошедшие не сложную регистрацию
    Показать сообщения:    

    Мама-детектив через торрент
    Скачать бесплатно Мама-детектив
    Мама-детектив скачать торрент
    Мама-детектив смотреть онлайн
    Cкачать фильм Мама-детектив бесплатно
    Мама-детектив скачать торрент в хорошем качестве
    Мама-детектив смотреть онлайн бесплатно в хорошем качестве


    Вы не можете начинать темы
    Вы не можете отвечать на сообщения
    Вы не можете редактировать свои сообщения
    Вы не можете удалять свои сообщения
    Вы не можете голосовать в опросах
    Вы не можете прикреплять файлы к сообщениям
    Вы можете скачивать файлы