новый адрес
Ссылка на приватное зеркало всего за 1$. Внимание количество ограничено!!!

iTunes

1+1

iTunes

мы

iTunes

1

iTunes

Чернобыль

iTunes

Ральф против интернета

Лицензия

ПШазам

Лицензия

Оно 2

Лицензия

30
pack

Вам бонус

ВАЖНО

!!Акция!!

Alien_RageХит недели

RePack

Resident Evil 21

ИГРА 18+

pack

RePack

jed

!!Акция!!

Alien_Rage

RePack

fifa19

RePack

Assassins Creed: Odyssey

RePack

NEED FOR SPEED™ PAYBACK

3 сезон

9 сезон

Бесстыжие 9 сезон

Все сериалы

все сериалы на PB.wtf

RePack

FAR CRY 5
Ребята, катастрофически не хватает 1900р. для оплаты серверов за Октябрь (всвязи с блокировками трафик упал в 3 раза), 1-2р., выручайте.
  

Пятьдесят оттенков свободы / Fifty Shades Freed (Джеймс Фоули) [2018, триллер, драма, мелодрама, BDRip-AVC] [Театральная версия] DUB [Лицензия] - ExKinoRay pb.wtf

Пятьдесят оттенков свободы через торрент pb.wtf

Раздают: 2 [ 0 KB/s ]
Размер: 2.04 GB | Добавлен: 1 год 6 мес. назад | Торрент скачан:341 раз
Скачать  

01-05-2018 03:11 Пятьдесят оттенков свободы Скачать торрент  

Информация о фильме
Название: Пятьдесят оттенков свободы
Оригинальное название: Fifty Shades Freed
Год выпуска: 2018
Жанр: Триллер, драма, мелодрама
Страна: США
Студия: Universal Pictures
Продолжительность: 01:45:18
Перевод: Дублированный | Лицензия
Режиссер: Джеймс Фоули
В ролях: Дакота Джонсон, Джейми Дорнан, Эрик Джонсон, Элоиза Мамфорд, Рита Ора, Люк Граймс, Виктор Расук, Макс Мартини, Дженнифер Или, Марша Гей Харден

Описание: Кристиан и Анастейша поженились и живут в своё удовольствие, наслаждаясь обществом друг друга. Однако жизнь новоиспечённой миссис Грей находится в опасности, поскольку объявляется недруг, который собирается мстить, используя свою богатую фантазию. Призраки прошлого Кристиана вновь вернулись, а тучи над супругами сгущаются всё сильнее.

rating

Файл
Формат: MKV
Качество: BDRip-AVC
Видео: MPEG-4 AVC, 1024x426 (2.40:1), 23.976 fps, 1880 kbps avg, 0.180 bit/pixel
Аудио 1: 48 kHz, AC3, 5.1, 448 Kbps | RUS | Dub | Лицензия |
Аудио 2: 48 kHz, AC3, 5.1, 448 Kbps | ENG |
Субтитры: Английские

Сохранены оригинальные чаптеры как на Blu-Ray.
General
Unique ID : 199252536724266886163890362698411221247 (0x95E6A487CE63B9A9ABEAF443A47B20FF)
Complete name : D:\Fifty.Shades.Freed.2018.BDRip.AVC.ExKinoRay.mkv
Format : Matroska
Format version : Version 2
File size : 2.04 GiB
Duration : 1 h 45 min
Overall bit rate : 2 777 kb/s
Movie name : Fifty Shades Freed 2018 from ExKinoRay
Encoded date : UTC 2018-05-27 14:28:50
Writing application : mkvmerge v5.6.0 ('Kenya Kane') built on May 27 2012 16:44:04
Writing library : libebml v1.2.3 + libmatroska v1.3.0

Video
ID : 1
Format : AVC
Format/Info : Advanced Video Codec
Format profile : High@L4.1
Format settings, CABAC : Yes
Format settings, ReFrames : 11 frames
Codec ID : V_MPEG4/ISO/AVC
Duration : 1 h 45 min
Bit rate : 1 880 kb/s
Width : 1 024 pixels
Height : 426 pixels
Display aspect ratio : 2.40:1
Frame rate mode : Constant
Frame rate : 23.976 (23976/1000) FPS
Color space : YUV
Chroma subsampling : 4:2:0
Bit depth : 8 bits
Scan type : Progressive
Bits/(Pixel*Frame) : 0.180
Stream size : 1.34 GiB (66%)
Title : Enigma
Writing library : x264 core 152 r2851 ba24899
Encoding settings : cabac=1 / ref=11 / deblock=1:-2:-2 / analyse=0x3:0x113 / me=umh / subme=11 / psy=1 / psy_rd=1.05:0.05 / mixed_ref=1 / me_range=32 / chroma_me=1 / trellis=2 / 8x8dct=1 / cqm=0 / deadzone=21,11 / fast_pskip=0 / chroma_qp_offset=-3 / threads=12 / lookahead_threads=3 / sliced_threads=0 / nr=0 / decimate=0 / interlaced=0 / bluray_compat=0 / constrained_intra=0 / bframes=12 / b_pyramid=2 / b_adapt=2 / b_bias=0 / direct=3 / weightb=1 / open_gop=0 / weightp=2 / keyint=240 / keyint_min=23 / scenecut=40 / intra_refresh=0 / rc_lookahead=40 / rc=2pass / mbtree=0 / bitrate=1880 / ratetol=1.0 / qcomp=0.60 / qpmin=0 / qpmax=51 / qpstep=4 / cplxblur=20.0 / qblur=0.5 / vbv_maxrate=50000 / vbv_bufsize=62500 / nal_hrd=none / filler=0 / ip_ratio=1.40 / pb_ratio=1.30 / aq=3:0.80
Language : English
Default : Yes
Forced : No
Color range : Limited
Color primaries : BT.709
Transfer characteristics : BT.709
Matrix coefficients : BT.709

Audio #1
ID : 2
Format : AC-3
Format/Info : Audio Coding 3
Mode extension : CM (complete main)
Format settings, Endianness : Big
Codec ID : A_AC3
Duration : 1 h 45 min
Bit rate mode : Constant
Bit rate : 448 kb/s
Channel(s) : 6 channels
Channel positions : Front: L C R, Side: L R, LFE
Sampling rate : 48.0 kHz
Frame rate : 31.250 FPS (1536 spf)
Compression mode : Lossy
Stream size : 337 MiB (16%)
Title : Dub (Blu-Ray)
Language : Russian
Default : Yes
Forced : No

Audio #2
ID : 3
Format : AC-3
Format/Info : Audio Coding 3
Mode extension : CM (complete main)
Format settings, Endianness : Big
Codec ID : A_AC3
Duration : 1 h 45 min
Bit rate mode : Constant
Bit rate : 448 kb/s
Channel(s) : 6 channels
Channel positions : Front: L C R, Side: L R, LFE
Sampling rate : 48.0 kHz
Frame rate : 31.250 FPS (1536 spf)
Compression mode : Lossy
Stream size : 337 MiB (16%)
Language : English
Default : No
Forced : No

Text #1
ID : 4
Format : UTF-8
Codec ID : S_TEXT/UTF8
Codec ID/Info : UTF-8 Plain Text
Title : Forced
Language : Russian
Default : Yes
Forced : No

Text #2
ID : 5
Format : UTF-8
Codec ID : S_TEXT/UTF8
Codec ID/Info : UTF-8 Plain Text
Language : English
Default : No
Forced : No

Menu
00:00:00.000 : en:00:00:00.000
00:05:12.479 : en:00:05:12.479
00:12:02.930 : en:00:12:02.930
00:19:40.137 : en:00:19:40.137
00:24:31.428 : en:00:24:31.428
00:28:19.114 : en:00:28:19.114
00:31:54.996 : en:00:31:54.996
00:36:46.913 : en:00:36:46.913
00:41:04.754 : en:00:41:04.754
00:46:54.228 : en:00:46:54.228
00:50:33.364 : en:00:50:33.364
00:54:58.545 : en:00:54:58.545
00:58:39.808 : en:00:58:39.808
01:04:12.891 : en:01:04:12.891
01:11:03.050 : en:01:11:03.050
01:16:51.732 : en:01:16:51.732
01:23:55.906 : en:01:23:55.906
01:28:58.249 : en:01:28:58.249
01:33:16.049 : en:01:33:16.049
01:39:05.398 : en:01:39:05.398
Релиз от:

Автор релиза: pb.wtf



Скачать Пятьдесят оттенков свободы через торрент http://lostpix.com/img/2018-04/13/f5w6bkxpydu9c0p63pa6wb4oz.jpg Скачать фильм Пятьдесят оттенков свободы через торрент бесплантно в хорошем качестве Описание: Кристиан и Анастейша поженились и живут в своё удовольствие, наслаждаясь обществом друг друга. Однако жизнь новоиспечённой ... 8.5 10 6
Info! Золотая раздача, скачанное не засчитывается.
Торрент: Зарегистрирован [2018-05-27 14:54] · скачан: 341 раз
Статус: √ проверено
Размер: 2.04 GB
Как cкачать? Как скачать Пятьдесят оттенков свободы через торрент | qTorrent

Отключить всю рекламу на сайте

27-05-2018 14:54 Пятьдесят оттенков свободы Скачать торрент  

Замена на лицензию.pb.wtf



    Дорогой пользователь! Огромная просьба, поблагодарите релизера, оцените раздачу и оставьте свои комментарий, если Вы скачали Пятьдесят оттенков свободы через торрент бесплатно! Внесите свою лепту в развитие PiratBit!
    Комментировать посты могут только пользователи прошедшие не сложную регистрацию
    Показать сообщения:    

    Пятьдесят оттенков свободы через торрент
    Скачать бесплатно Пятьдесят оттенков свободы
    Пятьдесят оттенков свободы скачать торрент
    Пятьдесят оттенков свободы смотреть онлайн
    Cкачать фильм Пятьдесят оттенков свободы бесплатно
    Пятьдесят оттенков свободы скачать торрент в хорошем качестве
    Пятьдесят оттенков свободы смотреть онлайн бесплатно в хорошем качестве


    Вы не можете начинать темы
    Вы не можете отвечать на сообщения
    Вы не можете редактировать свои сообщения
    Вы не можете удалять свои сообщения
    Вы не можете голосовать в опросах
    Вы не можете прикреплять файлы к сообщениям
    Вы можете скачивать файлы