Ссылка на приватное зеркало всего за 1$. Внимание количество ограничено!!!

OK

1+1

iTunes

мы

OK

1

WEB-DLRip

Джокер

Пифагор

Ведьмак / The Witcher сериал

iTunes

ПШазам

ОК

Оно 2

iTunes

30
pack

Вам бонус

ВАЖНО

!!Акция!!

Alien_RageХит недели

RePack

Resident Evil 21

ИГРА 18+

pack

RePack

jed

RePack

fifa19

RePack

Assassins Creed: Odyssey

RePack

NEED FOR SPEED™ PAYBACK

4 сезон

9 сезон

Бесстыжие 9 сезон

Все сериалы

все сериалы на PB.wtf

RePack

FAR CRY 5
  

Потерянное воспоминание / Lost Minds (Вей-эр Чен) [2016, Триллер, драма, WEB-DL 720p] MVO [КОЛОБОК] pb.wtf

Потерянное воспоминание через торрент pb.wtf

Размер: 3.27 GB | Добавлен: 1 год 8 мес. назад | Торрент скачан:25 раз
Скачать  

01-05-2018 08:07 Потерянное воспоминание Скачать торрент  

Потерянное воспоминание / Lost MindsГод выпуска: 2016
Страна: Китай
Жанр: Триллер, драма
Продолжительность: 01:35:21
Перевод: Любительский (многоголосый) | КОЛОБОК
Субтитры: корейские (вшитые), английские

Режиссер: Вей-эр Чен

rating

В ролях:

Ренцци Цзянь, Эндрю Лин

Описание:

Айцин была сиротой, когда она повзрослела появилось все возможности, чтобы быть совершенной. Она вышла замуж за идеального мужчину, и они считались идеальной парой. Когда ее муж решил принять еще одну сироту, это решение вызвало много плохих воспоминаний для Айцина и медленно подтолкнуло ее психическое состояние к краю.

Качество: WEB-DL 720p
Формат: MKV

Видео: h.264, 4 528 Кбит/с, 1280x536
Аудио: Русский (AC3, 2 ch, 384 Кбит/с)
скриншот  скриншот  скриншот  

Общее
Уникальный идентификатор : 218241340217842637779668277371825768000 (0xA42FC0D336DCC991B88A691F22874640)
Полное имя : D:\Lost.Minds.2016.Pk.WEB-DL.72Op.mkv
Формат : Matroska
Версия формата : Version 2
Размер файла : 3,27 Гбайт
Продолжительность : 1 ч. 35 м.
Режим общего битрейта : Переменный
Общий поток : 4914 Кбит/сек
Дата кодирования : UTC 2018-04-30 16:49:25
Программа кодирования : mkvmerge v8.3.0 ('Over the Horizon') 64bit
Библиотека кодирования : libebml v1.3.1 + libmatroska v1.4.2

Видео
Идентификатор : 1
Формат : AVC
Формат/Информация : Advanced Video Codec
Профиль формата : High@L4.1
Параметр CABAC формата : Да
Параметр RefFrames формата : 4 кадра
Идентификатор кодека : V_MPEG4/ISO/AVC
Продолжительность : 1 ч. 35 м.
Вид битрейта : Переменный
Битрейт : 4528 Кбит/сек
Максимальный битрейт : 5000 Кбит/сек
Ширина : 1280 пикселей
Высота : 536 пикселей
Соотношение сторон : 2,40:1
Режим частоты кадров : Постоянный
Частота кадров : 23,976 (24000/1001) кадра/сек
Стандарт вещания : Component
Цветовое пространство : YUV
Субдискретизация насыщенности : 4:2:0
Битовая глубина : 8 бит
Тип развёртки : Прогрессивная
Бит/(Пиксели*Кадры) : 0.269
Размер потока : 2,95 Гбайт (90%)
Default : Да
Forced : Нет
Цветовой диапазон : Limited
Основные цвета : BT.709
Характеристики трансфера : BT.709
Коэффициенты матрицы : BT.709

Аудио
Идентификатор : 2
Формат : AC-3
Формат/Информация : Audio Coding 3
Расширение режима : CM (complete main)
Параметр Endianness формата : Big
Идентификатор кодека : A_AC3
Продолжительность : 1 ч. 35 м.
Вид битрейта : Постоянный
Битрейт : 384 Кбит/сек
Каналы : 2 канала
Расположение каналов : Front: L R
Частота : 48,0 КГц
Частота кадров : 31,250 кадров/сек (1536 spf)
Метод сжатия : С потерями
Размер потока : 262 Мбайт (8%)
Default : Да
Forced : Нет

pb.wtf



Скачать Потерянное воспоминание через торрент http://img12.lostpic.net/2018/05/01/a56e408477d93b7dd7a465c9449f66d7.jpg Скачать фильм Потерянное воспоминание через торрент бесплантно в хорошем качестве Описание: Айцин была сиротой, когда она повзрослела появилось все возможности, чтобы быть совершенной. Она вышла замуж за идеального ... 7.8 10 4
Торрент: Зарегистрирован [2018-05-01 08:07] · скачан: 25 раз
Статус: T временная
Размер: 3.27 GB
Как cкачать? Как скачать Потерянное воспоминание через торрент | qTorrent

% Раздел Тема Автор DL S | L
T Фильмы (мультфильмы) cо спонсором показа (Новинки AVI/MKV) [ 1.37 GB ] Потерянное воспоминание / Lost Minds [2016 WEB-DLRip] MVO [КОЛОБОК] bober100 Скачать
1 | 0

28-11-2019 20:33  

Отключить всю рекламу на сайте

    Дорогой пользователь! Огромная просьба, поблагодарите релизера, оцените раздачу и оставьте свои комментарий, если Вы скачали Потерянное воспоминание через торрент бесплатно! Внесите свою лепту в развитие PiratBit!
    Комментировать посты могут только пользователи прошедшие не сложную регистрацию
    Показать сообщения:    

    Потерянное воспоминание через торрент
    Скачать бесплатно Потерянное воспоминание
    Потерянное воспоминание скачать торрент
    Потерянное воспоминание смотреть онлайн
    Cкачать фильм Потерянное воспоминание бесплатно
    Потерянное воспоминание скачать торрент в хорошем качестве
    Потерянное воспоминание смотреть онлайн бесплатно в хорошем качестве


    Вы не можете начинать темы
    Вы не можете отвечать на сообщения
    Вы не можете редактировать свои сообщения
    Вы не можете удалять свои сообщения
    Вы не можете голосовать в опросах
    Вы не можете прикреплять файлы к сообщениям
    Вы можете скачивать файлы