Ссылка на приватное зеркало нашего сайта всего за 1$. Внимание количество ограничено!!!

2 сезон

iTunes

1 сезон

1

2 сезон

2 сезон

iTunes

1 сезон

RePack

30

Ultimate

ВАЖНО

ИГРА 18+

pack

RePack

MK11
pack

Забери бонус

RePack

jed

!!Акция!!

Alien_Rage

RePack

fifa19

RePack

Assassins Creed: Odyssey

RePack

NEED FOR SPEED™ PAYBACK

4 сезон

9 сезон

Бесстыжие 9 сезон

Все сериалы

все сериалы на PB.wtf

RePack

FAR CRY 5
  

Механизм / O Mecanismo / Сезон: 1 / Серии: 1-8 из 8 (Фелипе Прадо, Жозе Падилья, Маркус Прадо) [2018, Триллер, драма, криминал, WEB-DLRip] MVO [NewStudio] pb.wtf

Механизм через торрент pb.wtf

Размер: 4.29 GB | Добавлен: 2 года 6 мес. назад | Торрент скачан:68 раз
Скачать  

02-05-2018 03:35 Механизм Скачать торрент  

Механизм / O Mecanismo
Год выпуска: 2018
Страна: Бразилия
Жанр: Триллер, драма, криминал
Продолжительность: ~00:45:00
Перевод: Профессиональный (многоголосый) |

Режиссер: Фелипе Прадо, Жозе Падилья, Маркус Прадо

rating

В ролях:

Селтон Мелу, Каролине Абрас, Алессандра Колаццанти, Энрике Диас, Джонатан Хаагенсен, Леонардо Медейрос, Отто Жуниор, Сюзана Рибейро, Антонио Сабойа, Ли Тейлор

Описание:

Группа следователей пытается раскрыть внутренние процессы крупнейшей коррупционной схемы в истории. Однако это расследование будет иметь последствия для всех, кто к нему причастен, — в том числе для тех, кто находится на стороне закона.

Качество: WEB-DLRip
Формат: AVI

Видео: XviD, ~ 1 500 Кбит/с, 720x400
Аудио#1: Русский (МР3, 2 ch, 128 Кбит/с)
Аудио#2: португальский (MP3, 2 ch, 128 Кбит/с)
скриншот  скриншот  скриншот  

Общее
Полное имя : C:\The.Mechanism.s01.WEBDLRip.NewStudio.TV\The.Mechanism.s01e01.WEBDLRip.NewStudio.TV.avi
Формат : AVI
Формат/Информация : Audio Video Interleave
Размер файла : 549 Мбайт
Продолжительность : 45 м. 11 с.
Общий поток : 1699 Кбит/сек
Программа кодирования : VirtualDubMod 1.5.10.2 (build 2540/release)
Библиотека кодирования : VirtualDubMod build 2540/release

Видео
Идентификатор : 0
Формат : MPEG-4 Visual
Профиль формата : Advanced Simple@L5
Параметр BVOP формата : 2
Параметр QPel формата : Да
Параметр GMC формата : Без точки перехода
Параметр матрицы формата : Default (MPEG)
Режим смешивания : Сжатый битовый поток
Идентификатор кодека : XVID
Идентификатор кодека/Подсказка : XviD
Продолжительность : 45 м. 11 с.
Битрейт : 1429 Кбит/сек
Ширина : 720 пикселей
Высота : 400 пикселей
Соотношение сторон : 16:9
Частота кадров : 23,976 (23976/1000) кадра/сек
Цветовое пространство : YUV
Субдискретизация насыщенности : 4:2:0
Битовая глубина : 8 бит
Тип развёртки : Прогрессивная
Метод сжатия : С потерями
Бит/(Пиксели*Кадры) : 0.207
Размер потока : 462 Мбайт (84%)
Библиотека кодирования : XviD 67

Аудио #1
Идентификатор : 1
Формат : MPEG Audio
Версия формата : Version 1
Профиль формата : Layer 3
Режим : Joint stereo
Расширение режима : MS Stereo
Идентификатор кодека : 55
Идентификатор кодека/Подсказка : MP3
Продолжительность : 45 м. 11 с.
Вид битрейта : Постоянный
Битрейт : 128 Кбит/сек
Каналы : 2 канала
Частота : 48,0 КГц
Метод сжатия : С потерями
Размер потока : 41,4 Мбайт (8%)
Выравнивание : Соединение по промежуткам
Продолжительность промежутка : 42 мс. (1,00 видеокадр)
Время предзагрузки промежутка : 504 мс.

Аудио #2
Идентификатор : 2
Формат : MPEG Audio
Версия формата : Version 1
Профиль формата : Layer 3
Режим : Joint stereo
Идентификатор кодека : 55
Идентификатор кодека/Подсказка : MP3
Продолжительность : 45 м. 11 с.
Вид битрейта : Постоянный
Битрейт : 128 Кбит/сек
Каналы : 2 канала
Частота : 48,0 КГц
Метод сжатия : С потерями
Размер потока : 41,4 Мбайт (8%)
Выравнивание : Соединение по промежуткам
Продолжительность промежутка : 42 мс. (1,00 видеокадр)
Время предзагрузки промежутка : 504 мс.
Библиотека кодирования : LAME3.99r
Настройки программы : -m j -V 4 -q 2 -lowpass 17 -b 128

pb.wtf



Скачать Механизм через торрент http://pic1.kartinco.top/images/11/4elty.jpg Скачать фильм Механизм через торрент бесплантно в хорошем качестве Описание: Группа следователей пытается раскрыть внутренние процессы крупнейшей коррупционной схемы в истории. Однако это расследование ... 7.8 10 4
Торрент: Зарегистрирован [2018-05-02 03:35] · скачан: 68 раз
Статус: √ проверено
Размер: 4.29 GB
Как cкачать? Как скачать Механизм через торрент | qTorrent

% Раздел Тема Автор DL S | L
Зарубежные сериалы [ 13.98 GB ] Механизм / O Mecanismo / Сезон: 1 / Серии: 1-8 из 8 [2018 WEBRip 720p] MVO [Jaskier] bober100 Скачать
1 | 0
Зарубежные сериалы [ 4.01 GB ] Механизм / O Mecanismo / Сезон: 1 / Серии: 1-8 из 8 [2018 WEBRip] MVO [Jaskier] bober100 Скачать
1 | 0
Зарубежные сериалы [ 28.44 GB ] Механизм / O Mecanismo / Сезон: 1 / Серии: 1-8 из 8 [2018 WEBRip 1080p] MVO [Jaskier] bober100 Скачать
1 | 0

28-11-2019 20:33  

Отключить всю рекламу на сайте

    Дорогой пользователь! Огромная просьба, поблагодарите релизера, оцените раздачу и оставьте свои комментарий, если Вы скачали Механизм через торрент бесплатно! Внесите свою лепту в развитие PiratBit!
    Комментировать посты могут только пользователи прошедшие не сложную регистрацию
    Показать сообщения:    

    Механизм через торрент
    Скачать бесплатно Механизм
    Механизм скачать торрент
    Механизм смотреть онлайн
    Cкачать фильм Механизм бесплатно
    Механизм скачать торрент в хорошем качестве
    Механизм смотреть онлайн бесплатно в хорошем качестве


    Вы не можете начинать темы
    Вы не можете отвечать на сообщения
    Вы не можете редактировать свои сообщения
    Вы не можете удалять свои сообщения
    Вы не можете голосовать в опросах
    Вы не можете прикреплять файлы к сообщениям
    Вы можете скачивать файлы