Лицензия

MVO

1

1 сезон

Лицензия

Лицензия

13

MVO

1 сезон

Deluxe Edition

pack

Рекомендуем

30

Repack

ВАЖНО

ВАЖНО

Ghostwire

RePack

jed

RePack

fifa19

RePack

RDR2

RePack

NEED FOR SPEED™ PAYBACK

RePack

Кинопоиск HD

 Острые козырьки 6 сезон

6 сезон

FAR CRY 6

RePack

Лицензия

MVO

1

1 сезон

1 сезон

Лицензия

  

Драка в блоке 99 / Brawl in Cell Block 99 (С. Крэйг Залер) [2017, боевик, триллер, криминал, BDRip 1080p] DUB [Лицензия]

Драка в блоке 99 через торрент pb.wtf

Раздают: 1 [ 0 KB/s ]
Размер: 10.35 GB | Добавлен: 4 года 4 мес. назад | Торрент скачан:591 раз
Смотреть онлайн Драка в блоке 99 | Скачать   

02-05-2018 05:53 Драка в блоке 99 Скачать торрент  

Драка в блоке 99 / Brawl in Cell Block 99Год выпуска: 2017
Страна: США
Жанр: боевик, триллер, криминал
Продолжительность: 02:12:23
Перевод: Дубляж | Лицензия
Субтитры: Русские, английские

Режиссер: С. Крэйг Залер

rating

В ролях:

Винс Вон, Дженнифер Карпентер, Том Гайри, Дон Джонсон, Марк Блукас, Удо Кир, Мустафа Жакир, Гено Седжерс, Роб Морган, Фред Меламед

Описание:

Бывший боксер и наркодилер Брэдли Томас пытался завязать с преступным прошлым, но оно затащило его обратно. Он с подельниками попался с поличным и отправился в тюрьму на 7 лет. И всё это так не вовремя, жена беременна долгожданной дочкой, а тут ещё на свиданку заявляется непонятный тип и, шантажируя нерожденным ребенком, велит Брэдли убить заключённого в блоке 99 тюрьмы строгого режима.

Качество: BDRip 1080p
Формат: MKV

Видео: 1920x1038 at 23.976 fps, [email protected], ~9076 kbps avg
Аудио#1: Russian: 48 kHz, AC3, 3/2 (L,C,R,l,r) + LFE ch, ~384.00 kbps avg
Аудио#2: English: 48 kHz, DTS, 3/2 (L,C,R,l,r) + LFE ch, ~1510.00 kbps avg
скриншот   скриншот   скриншот   скриншот  скриншот  

General
Unique ID : 173020478765365994246528863793116722620 (0x822A883802898F8395CE6C89F3A1B5BC)
Complete name : Brawl.in.Cell.Block.99.2017.bdriP.108Op.mkv
Format : Matroska
Format version : Version 2
File size : 10.3 GiB
Duration : 2 h 12 min
Overall bit rate : 11.2 Mb/s
Movie name : Brawl in Cell Block 99 2017 BDRip 1080p от werecut'a
Encoded date : UTC 2018-05-01 20:18:41
Writing application : mkvmerge v2.9.9 ('Tutu') built on Nov 25 2009 21:13:32
Writing library : libebml v0.7.9 + libmatroska v0.8.1

Video
ID : 1
Format : AVC
Format/Info : Advanced Video Codec
Format profile : [email protected]
Format settings : CABAC / 4 Ref Frames
Format settings, CABAC : Yes
Format settings, ReFrames : 4 frames
Codec ID : V_MPEG4/ISO/AVC
Duration : 2 h 12 min
Bit rate : 9 076 kb/s
Width : 1 920 pixels
Height : 1 038 pixels
Display aspect ratio : 1.85:1
Frame rate mode : Constant
Frame rate : 23.976 (24000/1001) FPS
Color space : YUV
Chroma subsampling : 4:2:0
Bit depth : 8 bits
Scan type : Progressive
Bits/(Pixel*Frame) : 0.190
Stream size : 8.39 GiB (81%)
Title : Today @ CHD
Writing library : x264 core 148 r2744+55 950084e t_mod_Custom [[email protected] X86]
Encoding settings : cabac=1 / ref=4 / deblock=1:-3:-3 / analyse=0x3:0x133 / me=umh / subme=11 / psy=1 / fade_compensate=0.00 / psy_rd=1.00:0.00 / mixed_ref=1 / me_range=32 / chroma_me=1 / trellis=2 / 8x8dct=1 / cqm=0 / deadzone=21,11 / fast_pskip=1 / chroma_qp_offset=-2 / threads=12 / lookahead_threads=2 / sliced_threads=0 / nr=0 / decimate=1 / interlaced=0 / bluray_compat=0 / constrained_intra=0 / fgo=0 / bframes=9 / b_pyramid=2 / b_adapt=2 / b_bias=0 / direct=1 / weightb=1 / open_gop=0 / weightp=2 / keyint=240 / keyint_min=23 / scenecut=40 / intra_refresh=0 / rc=crf / mbtree=0 / crf=16.7000 / qcomp=0.60 / qpmin=0:0:0 / qpmax=69:69:69 / qpstep=4 / ip_ratio=1.40 / pb_ratio=1.30 / aq=3:1.00 / aq-sensitivity=10.00 / aq-factor=1.00:1.00:1.00 / aq2=0 / aq3=0
Language : English
Default : Yes
Forced : Yes

Audio #1
ID : 2
Format : AC-3
Format/Info : Audio Coding 3
Codec ID : A_AC3
Duration : 2 h 12 min
Bit rate mode : Constant
Bit rate : 384 kb/s
Channel(s) : 6 channels
Channel positions : Front: L C R, Side: L R, LFE
Sampling rate : 48.0 kHz
Frame rate : 31.250 FPS (1536 SPF)
Bit depth : 16 bits
Compression mode : Lossy
Stream size : 364 MiB (3%)
Language : Russian
Service kind : Complete Main
Default : Yes
Forced : Yes

Audio #2
ID : 3
Format : DTS
Format/Info : Digital Theater Systems
Codec ID : A_DTS
Duration : 2 h 12 min
Bit rate mode : Constant
Bit rate : 1 509 kb/s
Channel(s) : 6 channels
Channel positions : Front: L C R, Side: L R, LFE
Sampling rate : 48.0 kHz
Frame rate : 93.750 FPS (512 SPF)
Bit depth : 24 bits
Compression mode : Lossy
Delay relative to video : 11 ms
Stream size : 1.40 GiB (13%)
Title : English
Language : English
Default : No
Forced : No

Text #1
ID : 4
Format : UTF-8
Codec ID : S_TEXT/UTF8
Codec ID/Info : UTF-8 Plain Text
Language : Russian
Default : No
Forced : No

Text #2
ID : 5
Format : UTF-8
Codec ID : S_TEXT/UTF8
Codec ID/Info : UTF-8 Plain Text
Language : English
Default : No
Forced : No

Text #3
ID : 6
Format : UTF-8
Codec ID : S_TEXT/UTF8
Codec ID/Info : UTF-8 Plain Text
Title : SDH
Language : English
Default : No
Forced : No

Menu
00:00:00.000 : en:Chapter 01
00:13:43.906 : en:Chapter 02
00:27:24.684 : en:Chapter 03
00:44:54.608 : en:Chapter 04
01:01:18.383 : en:Chapter 05
01:10:07.244 : en:Chapter 06
01:20:00.587 : en:Chapter 07
01:28:07.282 : en:Chapter 08
01:58:05.244 : en:Chapter 09
02:04:53.944 : en:Chapter 10




Скачать Драка в блоке 99 через торрент http://s015.radikal.ru/i330/1710/77/eca399ee3fe3.jpg Скачать, смотреть онлайн Драка в блоке 99 бесплантно в хорошем качестве Описание: Бывший боксер и наркодилер Брэдли Томас пытался завязать с преступным прошлым, но оно затащило его обратно. Он с подельниками ... 9.6 10 15
Info! Золотая раздача, скачанное не засчитывается.
Торрент: Зарегистрирован [2018-05-02 05:53] · скачан: 591 раз
Статус: √ проверено
Размер: 10.35 GB
Как cкачать? Как скачать Драка в блоке 99 через торрент | UTorrent

% Раздел Тема Автор DL S | L
Фильмы (Blu-ray, BD-Remux, HDDVD) [ 34.9 GB ] Драка в блоке 99 / Brawl in Cell Block 99 | Лицензия | BD Remux 1080p bober100 Скачать
1 | 0
Фильмы [HD 720p, 1080p] (Хороший звук DUB, MVO) [ 5.8 GB ] Драка в блоке 99 / Brawl in Cell Block 99 | Jaskier | 720p bober100 Скачать
1 | 0
Фильмы 2017 [DVDrip, WEB-DLRip, HDrip] (DUB, MVO) [ 2.12 GB ] Драка в блоке 99 / Brawl in Cell Block 99 | Jaskier | BDRip bober100 Скачать
1 | 0
Ultra HD (UHD: 2K, 4K, 8K) [ 58.62 GB ] Драка в блоке 99 / Brawl in Cell Block 99 | DUB + MVO | 2160p sheker187 Скачать
1 | 0
Фильмы 2017 [DVDrip, WEB-DLRip, HDrip] (DUB, MVO) [ 2.18 GB ] Драка в блоке 99 / Brawl in Cell Block 99 | Лицензия | BDRip от Twi7ter Twi7ter Скачать
1 | 0
Фильмы 2017 [DVDrip, WEB-DLRip, HDrip] (DUB, MVO) [ 1.46 GB ] Драка в блоке 99 / Brawl in Cell Block 99 | Лицензия | BDRip от Twi7ter Twi7ter Скачать
1 | 0
Фильмы 2017 [DVDrip, WEB-DLRip, HDrip] (DUB, MVO) [ 2.57 GB ] Драка в блоке 99 / Brawl in Cell Block 99 | AVO - ExKinoRay | BDRip-AVC Enigma2010 Скачать
1 | 0

28-11-2019 20:33  

Отключить вcю реклaмy на сайте

    Дорогой пользователь! Огромная просьба, поблагодарите релизера, оцените раздачу и оставьте свои комментарий, если Вы скачали Драка в блоке 99 через торрент бесплатно!!
    Комментировать посты могут только пользователи прошедшие не сложную регистрацию
    Показать сообщения:    


    Драка в блоке 99 через торрент
    Скачать бесплатно Драка в блоке 99
    Драка в блоке 99 скачать торрент
    Драка в блоке 99 смотреть онлайн
    Cкачать фильм Драка в блоке 99 бесплатно
    Драка в блоке 99 скачать торрент в хорошем качестве
    Драка в блоке 99 смотреть онлайн бесплатно в хорошем качестве
    Вы не можете начинать темы
    Вы не можете отвечать на сообщения
    Вы не можете редактировать свои сообщения
    Вы не можете удалять свои сообщения
    Вы не можете голосовать в опросах
    Вы не можете прикреплять файлы к сообщениям
    Вы можете скачивать файлы