Всегда рабочее зеркало без VPN и Proxy просто перед .vidak.icu напиши любое слово или цифру, Пример http://necw.vidak.icu

MVO

Лицензия

1 сезон

1

1 сезон

iTunes

1 сезон

13

1 сезон

Deluxe

pack

Рекомендуем

Пиратка

30

ВАЖНО

RePack

MK11

RePack

jed

RePack

fifa19

RePack

RDR2

RePack

NEED FOR SPEED™ PAYBACK

Кинопоиск HD

6 сезон

 Острые козырьки 6 сезон

Все сериалы

все сериалы на PB.wtf

RePack

FAR CRY 5
  
Magnet ссылка

Фантазия белых ночей / Ромео и Джульетта холодной войны / Серии: 1-4 из 4 (Игорь Зайцев, Яков Шереметьев) [2015, Драма, мелодрама, WEB-DLRip] pb.wtf

Фантазия белых ночей через торрент pb.wtf

Размер: 2.54 GB | Добавлен: 4 года 2 мес. назад | Торрент скачан:26 раз
Смотреть онлайн Фантазия белых ночей | Скачать    Ребята, помогите собрать деньги на оплату серверов!!!

02-05-2018 06:12 Фантазия белых ночей Скачать торрент  

Фантазия белых ночей / Ромео и Джульетта холодной войныГод выпуска: 2015
Страна: Россия
Жанр: Драма, мелодрама
Продолжительность: ~ 00:52:00
Субтитры: отсутствуют

Режиссер: Игорь Зайцев, Яков Шереметьев



В ролях:

Елизавета Боярская, Павел Трубинер, Анна Нахапетова, Владимир Зайцев, Артур Ваха, Оксана Базилевич, Владимир Чернышов, Наталья Ткаченко, Анна Штейн, Ксения Лукьянчикова, Марина Барсукова, Виталий Куликов

Описание:

Ленинград, конец 1970-х. Советский балет – гордость страны. Но аншлаги, звания и гастроли на Западе – только одна, парадная, сторона жизни артиста. За кулисами остаются тяжелый ежедневный труд, интриги коллег и постоянный присмотр КГБ. Андрей Плетнев, премьер Пермского театра оперы и балета, приглашен в Ленинград, в одну из лучших трупп страны. Это его последний шанс реализоваться как танцовщик. Но все уходит на второй план, когда он встречает здесь свою первую любовь Марию Симонову. Она – замужем и успешна. Андрей надеется, что юношеская привязанность осталась в прошлом. Однако чувства вспыхивают с новой силой, сметая барьеры и границы и ставя под угрозу не только карьеры, но и жизни влюбленных.

Качество: WEB-DLRip
Формат: AVI

Видео: XviD, 1600 Кбит/с, 720x400
Аудио: AC3, 2 ch, 192 Кбит/с
скриншот  скриншот  скриншот  

Общее
Полное имя : D:\Фантазия белых ночей (2015).WEB-DLRip.Files-x\1.Фантазия белых ночей (2015).WEB-DLRip.Files-x.avi
Формат : AVI
Формат/Информация : Audio Video Interleave
Размер файла : 652 Мбайт
Продолжительность : 51 м. 42 с.
Общий поток : 1763 Кбит/сек
Программа кодирования : VirtualDubMod 1.5.10.3 | www.virtualdub-fr.org || (build 2550/release)
Библиотека кодирования : VirtualDubMod build 2550/release

Видео
Идентификатор : 0
Формат : MPEG-4 Visual
Профиль формата : Advanced Simple@L5
Параметр BVOP формата : 1
Параметр QPel формата : Нет
Параметр GMC формата : Без точки перехода
Параметр матрицы формата : Выборочная
Идентификатор кодека : XVID
Идентификатор кодека/Подсказка : XviD
Продолжительность : 51 м. 42 с.
Битрейт : 1561 Кбит/сек
Ширина : 720 пикселей
Высота : 400 пикселей
Соотношение сторон : 16:9
Частота кадров : 25,000 кадров/сек
Цветовое пространство : YUV
Субдискретизация насыщенности : 4:2:0
Битовая глубина : 8 бит
Тип развёртки : Прогрессивная
Метод сжатия : С потерями
Бит/(Пиксели*Кадры) : 0.217
Размер потока : 577 Мбайт (89%)
Библиотека кодирования : XviD 73

Аудио
Идентификатор : 1
Формат : AC-3
Формат/Информация : Audio Coding 3
Расширение режима : CM (complete main)
Параметр Endianness формата : Big
Идентификатор кодека : 2000
Продолжительность : 51 м. 42 с.
Вид битрейта : Постоянный
Битрейт : 192 Кбит/сек
Каналы : 2 канала
Расположение каналов : Front: L R
Частота : 48,0 КГц
Частота кадров : 31,250 кадров/сек (1536 spf)
Метод сжатия : С потерями
Размер потока : 71,0 Мбайт (11%)
Выравнивание : Разделение по промежуткам
Продолжительность промежутка : 40 мс. (1,00 видеокадр)
Время предзагрузки промежутка : 500 мс.

pb.wtf



Скачать Фантазия белых ночей через торрент http://i104.fastpic.ru/big/2018/0501/99/8d760ed42dd7bd16f29a1d1eaaa20a99.jpg Скачать, смотреть онлайн Фантазия белых ночей бесплантно в хорошем качестве Описание: Ленинград, конец 1970-х. Советский балет – гордость страны. Но аншлаги, звания и гастроли на Западе – только одна, парадная, ... 10 10 3
Торрент: Зарегистрирован [2018-05-02 06:12] · скачан: 26 раз
Статус: √ проверено
Размер: 2.54 GB
Как cкачать? Как скачать Фантазия белых ночей через торрент | UTorrent

% Раздел Тема Автор DL S | L
Наши сериалы [ 2.84 GB ] Фантазия белых ночей / Ромео и Джульетта холодной войны / Серии: 1-4 из 4 [2015 WEB-DL 720p] bober100 Скачать
1 | 0

28-11-2019 20:33  

Отключить всю рекламу на сайте

    Дорогой пользователь! Огромная просьба, поблагодарите релизера, оцените раздачу и оставьте свои комментарий, если Вы скачали Фантазия белых ночей через торрент бесплатно!
    Комментировать посты могут только пользователи прошедшие не сложную регистрацию
    Показать сообщения:    

    Фантазия белых ночей через торрент
    Скачать бесплатно Фантазия белых ночей
    Фантазия белых ночей скачать торрент
    Фантазия белых ночей смотреть онлайн
    Cкачать фильм Фантазия белых ночей бесплатно
    Фантазия белых ночей скачать торрент в хорошем качестве
    Фантазия белых ночей смотреть онлайн бесплатно в хорошем качестве


    Вы не можете начинать темы
    Вы не можете отвечать на сообщения
    Вы не можете редактировать свои сообщения
    Вы не можете удалять свои сообщения
    Вы не можете голосовать в опросах
    Вы не можете прикреплять файлы к сообщениям
    Вы можете скачивать файлы