Всегда рабочее зеркало без VPN и Proxy просто перед .vidak.icu напиши любое слово или цифру, Пример http://i24y.vidak.icu

MVO

Лицензия

1 сезон

1

1 сезон

iTunes

1 сезон

13

1 сезон

Deluxe

pack

Рекомендуем

Пиратка

30

ВАЖНО

RePack

MK11

RePack

jed

RePack

fifa19

RePack

RDR2

RePack

NEED FOR SPEED™ PAYBACK

Кинопоиск HD

6 сезон

 Острые козырьки 6 сезон

Все сериалы

все сериалы на PB.wtf

RePack

FAR CRY 5
  
Magnet ссылка

Фантазия белых ночей / Ромео и Джульетта холодной войны / Серии: 1-4 из 4 (Игорь Зайцев, Яков Шереметьев) [2015, Драма, мелодрама, WEB-DL 720p] pb.wtf

Фантазия белых ночей через торрент pb.wtf

Размер: 2.84 GB | Добавлен: 4 года 2 мес. назад | Торрент скачан:33 раза
Смотреть онлайн Фантазия белых ночей | Скачать    Ребята, помогите собрать деньги на оплату серверов!!!

02-05-2018 06:21 Фантазия белых ночей Скачать торрент  

Фантазия белых ночей / Ромео и Джульетта холодной войныГод выпуска: 2015
Страна: Россия
Жанр: Драма, мелодрама
Продолжительность: ~ 00:52:00
Субтитры: отсутствуют

Режиссер: Игорь Зайцев, Яков Шереметьев



В ролях:

Елизавета Боярская, Павел Трубинер, Анна Нахапетова, Владимир Зайцев, Артур Ваха, Оксана Базилевич, Владимир Чернышов, Наталья Ткаченко, Анна Штейн, Ксения Лукьянчикова, Марина Барсукова, Виталий Куликов

Описание:

Ленинград, конец 1970-х. Советский балет – гордость страны. Но аншлаги, звания и гастроли на Западе – только одна, парадная, сторона жизни артиста. За кулисами остаются тяжелый ежедневный труд, интриги коллег и постоянный присмотр КГБ. Андрей Плетнев, премьер Пермского театра оперы и балета, приглашен в Ленинград, в одну из лучших трупп страны. Это его последний шанс реализоваться как танцовщик. Но все уходит на второй план, когда он встречает здесь свою первую любовь Марию Симонову. Она – замужем и успешна. Андрей надеется, что юношеская привязанность осталась в прошлом. Однако чувства вспыхивают с новой силой, сметая барьеры и границы и ставя под угрозу не только карьеры, но и жизни влюбленных.

Качество: WEB-DL 720p
Формат: MKV

Видео: MPEG-4 AVC, ~ 1797 Кбит/с, 1280x720
Аудио: AC3, 2 ch, 192 Кбит/с
скриншот   скриншот   скриншот  

Общее
Уникальный идентификатор : 202664020828819529210869489809297144936 (0x9877ABAED3FA7F64A1719DB5BEA27C68)
Полное имя : D:\Fantaziya.belyh.nochey.2015.WEB-DL.(720p).Getty\Fantaziya.belyh.nochey.e01.2015.WEB-DL.(720p).Getty.mkv
Формат : Matroska
Версия формата : Version 4 / Version 2
Размер файла : 736 Мбайт
Продолжительность : 51 м. 42 с.
Общий поток : 1991 Кбит/сек
Название фильма : Fantaziya.belyh.nochey.e01.2015.WEB-DL.(720p).Getty
Дата кодирования : UTC 2018-05-01 13:26:58
Программа кодирования : mkvmerge v7.8.0 ('River Man') 32bit built on Mar 27 2015 16:18:02
Библиотека кодирования : libebml v1.3.1 + libmatroska v1.4.2

Видео
Идентификатор : 1
Формат : AVC
Формат/Информация : Advanced Video Codec
Профиль формата : High@L3.1
Параметр CABAC формата : Да
Параметр RefFrames формата : 3 кадра
Идентификатор кодека : V_MPEG4/ISO/AVC
Продолжительность : 51 м. 42 с.
Битрейт : 1797 Кбит/сек
Ширина : 1280 пикселей
Высота : 720 пикселей
Соотношение сторон : 16:9
Режим частоты кадров : Постоянный
Частота кадров : 25,000 кадров/сек
Цветовое пространство : YUV
Субдискретизация насыщенности : 4:2:0
Битовая глубина : 8 бит
Тип развёртки : Прогрессивная
Бит/(Пиксели*Кадры) : 0.078
Размер потока : 665 Мбайт (90%)
Default : Да
Forced : Нет

Аудио
Идентификатор : 2
Формат : AC-3
Формат/Информация : Audio Coding 3
Расширение режима : CM (complete main)
Параметр Endianness формата : Big
Идентификатор кодека : A_AC3
Продолжительность : 51 м. 42 с.
Вид битрейта : Постоянный
Битрейт : 192 Кбит/сек
Каналы : 2 канала
Расположение каналов : Front: L R
Частота : 48,0 КГц
Частота кадров : 31,250 кадров/сек (1536 spf)
Метод сжатия : С потерями
Размер потока : 71,0 Мбайт (10%)
Default : Да
Forced : Нет

pb.wtf



Скачать Фантазия белых ночей через торрент http://i104.fastpic.ru/big/2018/0501/99/8d760ed42dd7bd16f29a1d1eaaa20a99.jpg Скачать, смотреть онлайн Фантазия белых ночей бесплантно в хорошем качестве Описание: Ленинград, конец 1970-х. Советский балет – гордость страны. Но аншлаги, звания и гастроли на Западе – только одна, парадная, ... 9.5 10 4
Торрент: Зарегистрирован [2018-05-02 06:21] · скачан: 33 раз
Статус: √ проверено
Размер: 2.84 GB
Как cкачать? Как скачать Фантазия белых ночей через торрент | UTorrent

% Раздел Тема Автор DL S | L
Наши сериалы [ 2.54 GB ] Фантазия белых ночей / Ромео и Джульетта холодной войны / Серии: 1-4 из 4 [2015 WEB-DLRip] bober100 Скачать
1 | 0

28-11-2019 20:33  

Отключить всю рекламу на сайте

    Дорогой пользователь! Огромная просьба, поблагодарите релизера, оцените раздачу и оставьте свои комментарий, если Вы скачали Фантазия белых ночей через торрент бесплатно!
    Комментировать посты могут только пользователи прошедшие не сложную регистрацию
    Показать сообщения:    

    Фантазия белых ночей через торрент
    Скачать бесплатно Фантазия белых ночей
    Фантазия белых ночей скачать торрент
    Фантазия белых ночей смотреть онлайн
    Cкачать фильм Фантазия белых ночей бесплатно
    Фантазия белых ночей скачать торрент в хорошем качестве
    Фантазия белых ночей смотреть онлайн бесплатно в хорошем качестве


    Вы не можете начинать темы
    Вы не можете отвечать на сообщения
    Вы не можете редактировать свои сообщения
    Вы не можете удалять свои сообщения
    Вы не можете голосовать в опросах
    Вы не можете прикреплять файлы к сообщениям
    Вы можете скачивать файлы