Ссылка на приватное зеркало нашего сайта всего за 1$. Внимание количество ограничено!!!

2 сезон

iTunes

iTunes

1

iTunes

iTunes

iTunes

WEBRip

iTunes

30
pack

Новость дня

ВАЖНО

!!Акция!!

Alien_RageХит недели

RePack

Horizon Zero Dawn

ИГРА 18+

pack

RePack

jed

!!Акция!!

Alien_Rage

RePack

fifa19

RePack

Assassins Creed: Odyssey

RePack

NEED FOR SPEED™ PAYBACK

4 сезон

9 сезон

Бесстыжие 9 сезон

Все сериалы

все сериалы на PB.wtf

RePack

FAR CRY 5
  

Безумная Любовь / Loco Love (Диего Гутьеррес) [2017, Драма, WEB-DL 720p] MVO ["Синема УС"] pb.wtf

Безумная Любовь через торрент pb.wtf

Размер: 3.57 GB | Добавлен: 2 года 4 мес. назад | Торрент скачан:7 раз
Скачать  

02-05-2018 15:23 Безумная Любовь Скачать торрент  

Безумная Любовь / Loco LoveГод выпуска: 2017
Страна: Мексика
Жанр: Драма
Продолжительность: 01:44:51
Перевод: Любительский (многоголосый) | "Синема УС"
Субтитры: отсутствуют

Режиссер: Диего Гутьеррес

rating

В ролях:

Хайме Аймерих, Мелани Беннет, Эван Девериан

Описание:

Парень и девушка влюбляются, однако их любви угрожает конфликт между Латинской и Американской общиной в Аризоне.

Качество: WEB-DL 720p
Формат: MKV

Видео: h.264, 4 484Kb/s, 1280x720
Аудио#1: AC3, 2 ch, 384 Кбит/с
скриншот  скриншот  скриншот  

Общее
Уникальный идентификатор : 236008635361071482524463631343605236881 (0xB18D9C1BB1CF41BA9B49976F7F43C491)
Полное имя : D:\Loco.Love.2017.P.WEB-DL.72Op_KOSHARA.mkv
Формат : Matroska
Версия формата : Version 2
Размер файла : 3,57 Гбайт
Продолжительность : 1 ч. 44 м.
Режим общего битрейта : Переменный
Общий поток : 4870 Кбит/сек
Дата кодирования : UTC 2018-04-30 15:32:03
Программа кодирования : mkvmerge v8.3.0 ('Over the Horizon') 64bit
Библиотека кодирования : libebml v1.3.1 + libmatroska v1.4.2

Видео
Идентификатор : 1
Формат : AVC
Формат/Информация : Advanced Video Codec
Профиль формата : High@L4.1
Параметр CABAC формата : Да
Параметр RefFrames формата : 4 кадра
Идентификатор кодека : V_MPEG4/ISO/AVC
Продолжительность : 1 ч. 44 м.
Вид битрейта : Переменный
Битрейт : 4484 Кбит/сек
Максимальный битрейт : 5000 Кбит/сек
Ширина : 1280 пикселей
Высота : 720 пикселей
Соотношение сторон : 16:9
Режим частоты кадров : Постоянный
Частота кадров : 23,976 (24000/1001) кадра/сек
Стандарт вещания : Component
Цветовое пространство : YUV
Субдискретизация насыщенности : 4:2:0
Битовая глубина : 8 бит
Тип развёртки : Прогрессивная
Бит/(Пиксели*Кадры) : 0.199
Размер потока : 3,21 Гбайт (90%)
Default : Да
Forced : Нет
Цветовой диапазон : Limited
Основные цвета : BT.709
Характеристики трансфера : BT.709
Коэффициенты матрицы : BT.709

Аудио
Идентификатор : 2
Формат : AC-3
Формат/Информация : Audio Coding 3
Расширение режима : CM (complete main)
Параметр Endianness формата : Big
Идентификатор кодека : A_AC3
Продолжительность : 1 ч. 44 м.
Вид битрейта : Постоянный
Битрейт : 384 Кбит/сек
Каналы : 2 канала
Расположение каналов : Front: L R
Частота : 48,0 КГц
Частота кадров : 31,250 кадров/сек (1536 spf)
Метод сжатия : С потерями
Размер потока : 288 Мбайт (8%)
Default : Да
Forced : Нет

pb.wtf



Скачать Безумная Любовь через торрент https://d.radikal.ru/d28/1805/b4/f6b9b8f9e124.jpg Скачать фильм Безумная Любовь через торрент бесплантно в хорошем качестве Описание: Парень и девушка влюбляются, однако их любви угрожает конфликт между Латинской и Американской общиной в ... 10 10 3
Торрент: Зарегистрирован [2018-05-02 15:23] · скачан: 7 раз
Статус: T временная
Размер: 3.57 GB
Как cкачать? Как скачать Безумная Любовь через торрент | qTorrent

% Раздел Тема Автор DL S | L
T Фильмы (мультфильмы) cо спонсором показа (Новинки AVI/MKV) [ 1.37 GB ] Безумная Любовь / Loco Love [2017 WEB-DLRip] MVO ["Синема УС"] bober100 Скачать
1 | 0

28-11-2019 20:33  

Отключить всю рекламу на сайте

    Дорогой пользователь! Огромная просьба, поблагодарите релизера, оцените раздачу и оставьте свои комментарий, если Вы скачали Безумная Любовь через торрент бесплатно! Внесите свою лепту в развитие PiratBit!
    Комментировать посты могут только пользователи прошедшие не сложную регистрацию
    Показать сообщения:    

    Безумная Любовь через торрент
    Скачать бесплатно Безумная Любовь
    Безумная Любовь скачать торрент
    Безумная Любовь смотреть онлайн
    Cкачать фильм Безумная Любовь бесплатно
    Безумная Любовь скачать торрент в хорошем качестве
    Безумная Любовь смотреть онлайн бесплатно в хорошем качестве


    Вы не можете начинать темы
    Вы не можете отвечать на сообщения
    Вы не можете редактировать свои сообщения
    Вы не можете удалять свои сообщения
    Вы не можете голосовать в опросах
    Вы не можете прикреплять файлы к сообщениям
    Вы можете скачивать файлы