Ссылка на приватное зеркало нашего сайта всего за 1$. Внимание количество ограничено!!!

2 сезон

iTunes

1 сезон

1

2 сезон

2 сезон

iTunes

1 сезон

RePack

30

Ultimate

ВАЖНО

ИГРА 18+

pack

RePack

MK11
pack

Забери бонус

RePack

jed

!!Акция!!

Alien_Rage

RePack

fifa19

RePack

Assassins Creed: Odyssey

RePack

NEED FOR SPEED™ PAYBACK

4 сезон

9 сезон

Бесстыжие 9 сезон

Все сериалы

все сериалы на PB.wtf

RePack

FAR CRY 5
  

Из Лос-Анджелеса в Вегас / LA To Vegas / Сезон: 1 / Серии: 1-15 из 15 (Стивен Левитан, Линда Мендоса, Джон Ригги) [2017, комедия, WEBRip 1080p] MVO [BaibaKo] pb.wtf

Из Лос-Анджелеса в Вегас через торрент pb.wtf

Размер: 15.27 GB | Добавлен: 2 года 6 мес. назад | Торрент скачан:8 раз
Скачать  

02-05-2018 17:29 Из Лос-Анджелеса в Вегас Скачать торрент  

Из Лос-Анджелеса в Вегас / LA To Vegas
Год выпуска: 2017
Страна: США
Жанр: комедия
Продолжительность: ~ 00:23:00
Перевод: Профессиональный (многоголосый) |
Субтитры: отсутствуют

Режиссер: Стивен Левитан, Линда Мендоса, Джон Ригги

rating

В ролях:

Петер Стормаре, Дилан МакДермотт, Нэйтан Кресс, Кимберли Матула, Алекс Фринка, Эд Викс, Виктория Парк, Нэйтан Ли Грэхэм, Сара Кортес, Амир Талай и др.

Описание:

В центре сюжета компания неутомимых авантюристов. Последние годы каждого из них преследовала череда неудач, но они решили использовать свой последний шанс вытянуть счастливый билет. На последние сбережения они отправляются в город, где сбываются мечты Лас-Вегас. Каждый из героев планирует разбогатеть и начать новую жизнь. Исполнит ли заветный авиарейс из Лос-Анджелеса в Вегас их желания или неудачники потерпят очередной провал. Не только у пассажиров большие планы на эту поездку.

Качество: WEBRip 1080p
Формат: MKV
Видео кодек: H.264
Аудио кодек: AC3

Видео: MPEG-4 AVC, ~ 5 400 Кбит/с, 1920x1080
Аудио#1: Русский (AC3, 6 ch, 384 Кбит/с)
Аудио#2: английский (AC3, 6 ch, 384 Кбит/с)
скриншот   скриншот   скриншот  

Общее
Уникальный идентификатор : 220620219570813237014067701307862594946 (0xA5F9E8A1EE58C1FE843B6F9EF492B582)
Полное имя : D:\LA.to.Vegas.s01.HD1080p.WEBRip.Rus.Eng.BaibaKo.tv\LA.to.Vegas.s01e01.HD1080p.WEBRip.Rus.Eng.BaibaKo.tv.mkv
Формат : Matroska
Версия формата : Version 4 / Version 2
Размер файла : 1,01 Гбайт
Продолжительность : 23 м. 22 с.
Общий поток : 6179 Кбит/сек
Дата кодирования : UTC 2017-12-26 00:24:14
Программа кодирования : mkvmerge v8.5.2 ('Crosses') 64bit
Библиотека кодирования : libebml v1.3.3 + libmatroska v1.4.4

Видео
Идентификатор : 1
Формат : AVC
Формат/Информация : Advanced Video Codec
Профиль формата : High@L4
Параметр CABAC формата : Да
Параметр RefFrames формата : 4 кадра
Идентификатор кодека : V_MPEG4/ISO/AVC
Продолжительность : 23 м. 22 с.
Битрейт : 5288 Кбит/сек
Ширина : 1920 пикселей
Высота : 1080 пикселей
Соотношение сторон : 16:9
Режим частоты кадров : Постоянный
Частота кадров : 23,976 (24000/1001) кадра/сек
Цветовое пространство : YUV
Субдискретизация насыщенности : 4:2:0
Битовая глубина : 8 бит
Тип развёртки : Прогрессивная
Бит/(Пиксели*Кадры) : 0.106
Размер потока : 884 Мбайт (86%)
Библиотека кодирования : x264 core 152 r2851 ba24899
Настройки программы : cabac=1 / ref=3 / deblock=1:0:0 / analyse=0x3:0x113 / me=hex / subme=7 / psy=1 / psy_rd=1.00:0.00 / mixed_ref=1 / me_range=16 / chroma_me=1 / trellis=1 / 8x8dct=1 / cqm=0 / deadzone=21,11 / fast_pskip=1 / chroma_qp_offset=-2 / threads=30 / lookahead_threads=5 / sliced_threads=0 / nr=0 / decimate=1 / interlaced=0 / bluray_compat=0 / constrained_intra=0 / bframes=3 / b_pyramid=2 / b_adapt=1 / b_bias=0 / direct=1 / weightb=1 / open_gop=0 / weightp=2 / keyint=240 / keyint_min=23 / scenecut=40 / intra_refresh=0 / rc_lookahead=40 / rc=crf / mbtree=1 / crf=18.0 / qcomp=0.60 / qpmin=0 / qpmax=69 / qpstep=4 / ip_ratio=1.40 / aq=1:1.00
Default : Нет
Forced : Нет

Аудио #1
Идентификатор : 2
Формат : AC-3
Формат/Информация : Audio Coding 3
Расширение режима : CM (complete main)
Параметр Endianness формата : Big
Идентификатор кодека : A_AC3
Продолжительность : 23 м. 22 с.
Вид битрейта : Постоянный
Битрейт : 384 Кбит/сек
Каналы : 2 канала
Расположение каналов : Front: L R
Частота : 48,0 КГц
Частота кадров : 31,250 кадров/сек (1536 spf)
Метод сжатия : С потерями
Размер потока : 64,2 Мбайт (6%)
Язык : Russian
Default : Да
Forced : Нет

Аудио #2
Идентификатор : 3
Формат : AC-3
Формат/Информация : Audio Coding 3
Расширение режима : CM (complete main)
Параметр Endianness формата : Big
Идентификатор кодека : A_AC3
Продолжительность : 23 м. 22 с.
Вид битрейта : Постоянный
Битрейт : 384 Кбит/сек
Каналы : 2 канала
Расположение каналов : Front: L R
Частота : 48,0 КГц
Частота кадров : 31,250 кадров/сек (1536 spf)
Метод сжатия : С потерями
Размер потока : 64,2 Мбайт (6%)
Язык : English
Default : Нет
Forced : Нет

pb.wtf



Скачать Из Лос-Анджелеса в Вегас через торрент http://pic1.kartinco.top/images/11/1iyl4.jpg Скачать фильм Из Лос-Анджелеса в Вегас через торрент бесплантно в хорошем качестве Описание: В центре сюжета компания неутомимых авантюристов. Последние годы каждого из них преследовала череда неудач, но они решили ... 10 10 3
Торрент: Зарегистрирован [2018-05-02 17:29] · скачан: 8 раз
Статус: √ проверено
Размер: 15.27 GB
Как cкачать? Как скачать Из Лос-Анджелеса в Вегас через торрент | qTorrent

% Раздел Тема Автор DL S | L
Зарубежные сериалы [ 29.3 GB ] Из Лос-Анджелеса в Вегас / LA To Vegas / Сезон: 1 / Серии: 1-15 из 15 [2017 WEB-DL 1080p] MVO [FOX] bober100 Скачать
1 | 0
Зарубежные сериалы [ 8.88 GB ] Из Лос-Анджелеса в Вегас / LA To Vegas / Сезон: 1 / Серии: 1-15 из 15 [2017 WEBRip 720p] MVO [Jaskier] bober100 Скачать
1 | 0
Зарубежные сериалы [ 4.12 GB ] Из Лос-Анджелеса в Вегас / LA To Vegas / Сезон: 1 / Серии: 1-15 из 15 [2017 WEB-DLRip] MVO [FOX] bober100 Скачать
1 | 0
Зарубежные сериалы [ 8.85 GB ] Из Лос-Анджелеса в Вегас / LA To Vegas / Сезон: 1 / Серии: 1-15 из 15 [2017 WEB-DL 720p] MVO [FOX] bober100 Скачать
1 | 0
Зарубежные сериалы [ 4.11 GB ] Из Лос-Анджелеса в Вегас / LA To Vegas / Сезон: 1 / Серии: 1-15 из 15 [2017 WEBRip] MVO [Jaskier] bober100 Скачать
1 | 0
Зарубежные сериалы [ 28.94 GB ] Из Лос-Анджелеса в Вегас / LA To Vegas / Сезон: 1 / Серии: 1-15 из 15 [2017 WEBRip 1080p] MVO [Jaskier] bober100 Скачать
1 | 0
Зарубежные сериалы [ 10.75 GB ] Из Лос-Анджелеса в Вегас / LA to Vegas / Сезон: 1 / Серии 1-15 из 15 [2018 WEBRip 720p] MVO [BaibaKo] GEKADOL Скачать
1 | 0

28-11-2019 20:33  

Отключить всю рекламу на сайте

    Дорогой пользователь! Огромная просьба, поблагодарите релизера, оцените раздачу и оставьте свои комментарий, если Вы скачали Из Лос-Анджелеса в Вегас через торрент бесплатно! Внесите свою лепту в развитие PiratBit!
    Комментировать посты могут только пользователи прошедшие не сложную регистрацию
    Показать сообщения:    

    Из Лос-Анджелеса в Вегас через торрент
    Скачать бесплатно Из Лос-Анджелеса в Вегас
    Из Лос-Анджелеса в Вегас скачать торрент
    Из Лос-Анджелеса в Вегас смотреть онлайн
    Cкачать фильм Из Лос-Анджелеса в Вегас бесплатно
    Из Лос-Анджелеса в Вегас скачать торрент в хорошем качестве
    Из Лос-Анджелеса в Вегас смотреть онлайн бесплатно в хорошем качестве


    Вы не можете начинать темы
    Вы не можете отвечать на сообщения
    Вы не можете редактировать свои сообщения
    Вы не можете удалять свои сообщения
    Вы не можете голосовать в опросах
    Вы не можете прикреплять файлы к сообщениям
    Вы можете скачивать файлы