новый адрес
Ссылка на приватное зеркало всего за 1$. Внимание количество ограничено!!!

iTunes

1+1

iTunes

мы

WEB-DL

1

iTunes

Чернобыль

iTunes

Ральф против интернета

Лицензия

ПШазам

Лицензия

Оно 2

Лицензия

30
pack

Вам бонус

ВАЖНО

!!Акция!!

Alien_RageХит недели

RePack

Resident Evil 21

ИГРА 18+

pack

RePack

jed

!!Акция!!

Alien_Rage

RePack

fifa19

RePack

Assassins Creed: Odyssey

RePack

NEED FOR SPEED™ PAYBACK

3 сезон

9 сезон

Бесстыжие 9 сезон

Все сериалы

все сериалы на PB.wtf

RePack

FAR CRY 5
Ребята, катастрофически не хватает 1900р. для оплаты серверов за Октябрь (всвязи с блокировками трафик упал в 3 раза), 1-2р., выручайте.
  

Весенние грозы (Николай Фигуровский) [1960, драма, SATRip от AVP Studio] pb.wtf

Весенние грозы через торрент pb.wtf

Размер: 1.09 GB | Добавлен: 1 год 7 мес. назад | Торрент скачан:14 раз
Скачать  

02-05-2018 18:58 Весенние грозы Скачать торрент  

Весенние грозы
Страна: СССР
Производство: Беларусьфильм

Жанр: драма
Год выпуска: 1960
Продолжительность: 01:28:31

Перевод: Не требуется
Cубтитры: нет
Оригинальная аудиодорожка: русский

Режиссер: Николай Фигуровский

В ролях:
Рита Гладунко, Евгения Козырева, Дмитрий Орлов (II), Надир Малишевский, Тамара Трушина, Анатолий Адоскин, Леонид Рахленко, Юрий Сидоров, Евгений Карнаухов, Владимир Светлов...
Об актёрах подробней

Описание:
Летом 1945 года после фашистского плена Ольга вернулась в родной город и стала разыскивать мужа, с которым рассталась в начале войны. Она поступила работать администратором в плавучий эстрадный театр и вскоре стала певицей. Считая Ольгу давно погибшей, молодой ученый Виктор Бородин женился вторично. Совместно работая над научным проектом, молодая пара считала себя счастливой до тех пор, пока Виктор вновь не встретил Ольгу...

Исходник: DVB
Качество видео: SATRip
Формат видео: AVI

Видео: 688x480 (1,433:1), 25,000 кадров/сек, XviD ~ 1561 kbps avg, 0.189 bit/pixel
Аудио: 48 kHz, Dolby Digital AC3 2.0, 192 kbps

Раздача от:
Общее
Полное имя : Vesennie.grozy.1960.SATRip_[New-team]_by_AVP_Studio.avi
Формат : AVI
Формат/Информация : Audio Video Interleave
Размер файла : 1,09 Гбайт
Продолжительность : 1 ч. 28 м.
Общий поток : 1763 Кбит/сек
Программа кодирования : VirtualDubMod 1.5.10.3 | www.virtualdub-fr.org || (build 2550/release)
Библиотека кодирования : VirtualDubMod build 2550/release

Видео
Идентификатор : 0
Формат : MPEG-4 Visual
Профиль формата : Advanced Simple@L5
Настройки формата : BVOP1 / Custom Matrix
Параметр BVOP формата : 1
Параметр QPel формата : Нет
Параметр GMC формата : Без точки перехода
Параметр матрицы формата : Выборочная
Идентификатор кодека : XVID
Идентификатор кодека/Подсказка : XviD
Продолжительность : 1 ч. 28 м.
Битрейт : 1561 Кбит/сек
Ширина : 688 пикселей
Высота : 480 пикселей
Соотношение сторон : 1,433
Частота кадров : 25,000 кадров/сек
Цветовое пространство : YUV
Субдискретизация насыщенности : 4:2:0
Битовая глубина : 8 бит
Тип развёртки : Прогрессивная
Метод сжатия : С потерями
Бит/(Пиксели*Кадры) : 0.189
Размер потока : 988 Мбайт (89%)
Библиотека кодирования : XviD 73

Аудио
Идентификатор : 1
Формат : AC-3
Формат/Информация : Audio Coding 3
Идентификатор кодека : 2000
Продолжительность : 1 ч. 28 м.
Вид битрейта : Постоянный
Битрейт : 192 Кбит/сек
Каналы : 2 канала
Расположение каналов : Front: L R
Частота : 48,0 КГц
Частота кадров : 31,250 кадров/сек (1536 SPF)
Битовая глубина : 16 бит
Метод сжатия : С потерями
Размер потока : 122 Мбайт (11%)
Выравнивание : Разделение по промежуткам
Продолжительность промежутка : 40 мс. (1,00 видеокадр)
Время предзагрузки промежутка : 500 мс
pb.wtf



Скачать Весенние грозы через торрент http://picplus.ru/img/1805/01/46313f5e.png Скачать фильм Весенние грозы через торрент бесплантно в хорошем качестве Описание:Летом 1945 года после фашистского плена Ольга вернулась в родной город и стала разыскивать мужа, с которым рассталась в начале ... 5 10 1
Info! Золотая раздача, скачанное не засчитывается.
Торрент: Зарегистрирован [2018-05-02 18:58] · скачан: 14 раз
Статус: √ проверено
Размер: 1.09 GB
Как cкачать? Как скачать Весенние грозы через торрент | qTorrent

% Раздел Тема Автор DL S | L
Кино СССР [ 1.09 GB ] Весенние грозы [1960 SATRip-AVC от AVP Studio] AVP Studio Скачать
1 | 0

28-11-2019 20:33  

Отключить всю рекламу на сайте

    Дорогой пользователь! Огромная просьба, поблагодарите релизера, оцените раздачу и оставьте свои комментарий, если Вы скачали Весенние грозы через торрент бесплатно! Внесите свою лепту в развитие PiratBit!
    Комментировать посты могут только пользователи прошедшие не сложную регистрацию
    Показать сообщения:    

    Весенние грозы через торрент
    Скачать бесплатно Весенние грозы
    Весенние грозы скачать торрент
    Весенние грозы смотреть онлайн
    Cкачать фильм Весенние грозы бесплатно
    Весенние грозы скачать торрент в хорошем качестве
    Весенние грозы смотреть онлайн бесплатно в хорошем качестве


    Вы не можете начинать темы
    Вы не можете отвечать на сообщения
    Вы не можете редактировать свои сообщения
    Вы не можете удалять свои сообщения
    Вы не можете голосовать в опросах
    Вы не можете прикреплять файлы к сообщениям
    Вы можете скачивать файлы