Ссылка на приватное зеркало нашего сайта всего за 1$. Внимание количество ограничено!!!

2 сезон

iTunes

1 сезон

1

iTunes

iTunes

iTunes

1 сезон

RePack

30

ИГРА 18+

pack

ВАЖНО

!!Акция!!

Alien_RageХит недели

RePack

MK11
pack

Забери бонус

RePack

jed

!!Акция!!

Alien_Rage

RePack

fifa19

RePack

Assassins Creed: Odyssey

RePack

NEED FOR SPEED™ PAYBACK

4 сезон

9 сезон

Бесстыжие 9 сезон

Все сериалы

все сериалы на PB.wtf

RePack

FAR CRY 5
  

Первый парень на деревне / Серии: 1-4 из 4 (Николай Каптан) [2018, комедия, WEB-DL 1080p] pb.wtf

Первый парень на деревне через торрент pb.wtf

Размер: 8.99 GB | Добавлен: 2 года 5 мес. назад | Торрент скачан:57 раз
Скачать  

03-05-2018 01:42 Первый парень на деревне Скачать торрент  

Первый парень на деревнеГод выпуска: 2018
Страна: Россия
Жанр: комедия
Продолжительность: ~ 00:54:00
Субтитры: отсутствуют

Режиссер: Николай Каптан



В ролях:
Валентин Томусяк, Евгения Нохрина, Армен Джигарханян, Семён Стругачёв, Татьяна Орлова, Светлана Пермякова

Описание:

Лейтенант полиции Михаил Ермаков — честный и неподкупный страж порядка, который снискал славу не только своим особым подходом к работе, но и равнодушием к алкоголю. Принципиальность сотрудника полиции становится поводом для его перевода из столицы в глухую деревню, где ему предстоит жить в доме первой красавицы Насти. Несмотря на любовь с первого взгляда, жить и работать Михаилу нелегко. Местные жит
ели то и дело норовят угостить лейтенанта горячительным, даже участковый Грищенко постоянно предпринимает попытки отвлечь московского специалиста от исполнения обязанностей. Настя предлагает Михаилу собрать вещи и вернуться в столицу, но Ермаков не намерен сдаваться так просто…

Качество: WEB-DL 1080p
Формат: MKV

Видео: MPEG-4 AVC, ~ 6000 Кбит/с, 1920x1080
Аудио: AC3, 2 ch, 192 Кбит/с
скриншот   скриншот   скриншот  

Общее
Уникальный идентификатор : 248156238873172516839923973347673853595 (0xBAB12733BD5E4CF7678D673669434E9B)
Полное имя : D:\Первый парень на деревне.2017.WEB-DL.(1080p).by.Nicodem.Files-x\01.Первый парень на деревне.2017.WEB-DL.(1080p).by.Nicodem.Files-x.mkv
Формат : Matroska
Версия формата : Version 4 / Version 2
Размер файла : 2,38 Гбайт
Продолжительность : 54 м. 56 с.
Режим общего битрейта : Постоянный
Общий поток : 6193 Кбит/сек
Программа кодирования : Lavf56.36.100
Библиотека кодирования : Lavf56.36.100 / Lavf56.36.100

Видео
Идентификатор : 1
Формат : AVC
Формат/Информация : Advanced Video Codec
Профиль формата : High@L4.1
Параметр CABAC формата : Нет
Параметр RefFrames формата : 2 кадра
Идентификатор кодека : V_MPEG4/ISO/AVC
Продолжительность : 54 м. 56 с.
Вид битрейта : Постоянный
Битрейт : 6000 Кбит/сек
Ширина : 1920 пикселей
Высота : 1080 пикселей
Соотношение сторон : 16:9
Режим частоты кадров : Постоянный
Частота кадров : 25,000 кадров/сек
Стандарт вещания : PAL
Цветовое пространство : YUV
Субдискретизация насыщенности : 4:2:0
Битовая глубина : 8 бит
Тип развёртки : Прогрессивная
Бит/(Пиксели*Кадры) : 0.116
Размер потока : 2,26 Гбайт (95%)
Default : Да
Forced : Нет
Цветовой диапазон : Limited
Основные цвета : BT.709
Характеристики трансфера : BT.709
Коэффициенты матрицы : BT.709

Аудио
Идентификатор : 2
Формат : AC-3
Формат/Информация : Audio Coding 3
Расширение режима : CM (complete main)
Параметр Endianness формата : Big
Идентификатор кодека : A_AC3
Продолжительность : 54 м. 56 с.
Вид битрейта : Постоянный
Битрейт : 192 Кбит/сек
Каналы : 2 канала
Расположение каналов : Front: L R
Частота : 48,0 КГц
Частота кадров : 31,250 кадров/сек (1536 spf)
Метод сжатия : С потерями
Задержка видео : -40 мс.
Размер потока : 75,4 Мбайт (3%)
Язык : unknown
Default : Да
Forced : Нет

pb.wtf



Скачать Первый парень на деревне через торрент http://i105.fastpic.ru/big/2018/0502/ae/b776d1c5e4b47606abecce669a2b90ae.jpg Скачать фильм Первый парень на деревне через торрент бесплантно в хорошем качестве Описание: Лейтенант полиции Михаил Ермаков — честный и неподкупный страж порядка, который снискал славу не только своим особым подходом к ... 10 10 3
Торрент: Зарегистрирован [2018-05-03 01:42] · скачан: 57 раз
Статус: √ проверено
Размер: 8.99 GB
Как cкачать? Как скачать Первый парень на деревне через торрент | qTorrent

% Раздел Тема Автор DL S | L
Наши сериалы [ 10.31 GB ] Первый парень на деревне / Серия 1-4 из 4 [2017 HDTV 1080p] [Русский] R.G.Generalfilm White Smoke Скачать
1 | 0
Наши сериалы [ 3.18 GB ] Первый парень на деревне / Серии: 1-4 из 4 [2018 WEB-DLRip-AVC] bober100 Скачать
1 | 0
Наши сериалы [ 2.55 GB ] Первый парень на деревне / Серии: 1-4 из 4 [2018 WEB-DLRip] bober100 Скачать
1 | 0
Наши сериалы [ 2.78 GB ] Первый парень на деревне /Серия 1-4 из 4/ [2017 SATRip] oleg8 Скачать
1 | 0

28-11-2019 20:33  

Отключить всю рекламу на сайте

    Дорогой пользователь! Огромная просьба, поблагодарите релизера, оцените раздачу и оставьте свои комментарий, если Вы скачали Первый парень на деревне через торрент бесплатно! Внесите свою лепту в развитие PiratBit!
    Комментировать посты могут только пользователи прошедшие не сложную регистрацию
    Показать сообщения:    

    Первый парень на деревне через торрент
    Скачать бесплатно Первый парень на деревне
    Первый парень на деревне скачать торрент
    Первый парень на деревне смотреть онлайн
    Cкачать фильм Первый парень на деревне бесплатно
    Первый парень на деревне скачать торрент в хорошем качестве
    Первый парень на деревне смотреть онлайн бесплатно в хорошем качестве


    Вы не можете начинать темы
    Вы не можете отвечать на сообщения
    Вы не можете редактировать свои сообщения
    Вы не можете удалять свои сообщения
    Вы не можете голосовать в опросах
    Вы не можете прикреплять файлы к сообщениям
    Вы можете скачивать файлы