новый адрес
Ссылка на приватное зеркало всего за 1$. Внимание количество ограничено!!!

iTunes

1+1

iTunes

мы

WEB-DL

1

iTunes

Чернобыль

iTunes

Ральф против интернета

Лицензия

ПШазам

Лицензия

Оно 2

Лицензия

30
pack

Вам бонус

ВАЖНО

!!Акция!!

Alien_RageХит недели

RePack

Resident Evil 21

ИГРА 18+

pack

RePack

jed

!!Акция!!

Alien_Rage

RePack

fifa19

RePack

Assassins Creed: Odyssey

RePack

NEED FOR SPEED™ PAYBACK

3 сезон

9 сезон

Бесстыжие 9 сезон

Все сериалы

все сериалы на PB.wtf

RePack

FAR CRY 5
Ребята, катастрофически не хватает 1900р. для оплаты серверов за Октябрь (всвязи с блокировками трафик упал в 3 раза), 1-2р., выручайте.
  

Титан / The Titan (Леннарт Рафф) [2018, фантастика, WEB-DLRip] MVO [NewStudio] pb.wtf

Титан через торрент pb.wtf

Размер: 1.48 GB | Добавлен: 1 год 7 мес. назад | Торрент скачан:431 раз
Скачать  

03-05-2018 04:16 Титан Скачать торрент  

Титан / The Titan
Год выпуска: 2018
Страна: Великобритания, США, Испания
Жанр: фантастика
Продолжительность: 01:37:19
Перевод: Профессиональный (многоголосый) |
Субтитры: Русские (на надписи)

Режиссер: Леннарт Рафф

rating

В ролях:

Сэм Уортингтон, Тейлор Шиллинг, Том Уилкинсон, Агнесс Дейн, Натали Эммануэль, Кори Джонсон, Александр Йованович, Аарон Хеффернан, Натали Поса, Стивен Кри

Описание:

Американский военный Рик принимает участие в грандиозной космической программе. Лучшие умы планеты пытаются создать сверхлюдей, которые после гибели Земли обеспечат продолжение существования человечества на планете Титан. Однако эксперимент по скрещиванию генов Homo sapiens с инопланетным существом приводит к совершенно непредсказуемым последствиям.

Качество: WEB-DLRip
Формат: AVI

Видео: 720x304 at 23.976 fps, XviD, ~1780 kbps avg
Аудио: Russian: AC3, 384 kb/s (6 ch)
скриншот  скриншот  скриншот  

Общее
Полное имя : D:ЗаготовкиThe.Titan.2018.MVO.WEB-DLRipThe.Titan.2018.MVO.WEB-DLRip.avi
Формат : AVI
Формат/Информация : Audio Video Interleave
Размер файла : 1,48 Гбайт
Продолжительность : 1 ч. 37 м.
Общий поток : 2173 Кбит/сек
Программа кодирования : VirtualDubMod 1.5.10.3 | www.virtualdub-fr.org || (build 2550/release)
Библиотека кодирования : VirtualDubMod build 2550/release

Видео
Идентификатор : 0
Формат : MPEG-4 Visual
Профиль формата : Advanced Simple@L5
Настройки формата : BVOP2 / Custom Matrix
Параметр BVOP формата : 2
Параметр QPel формата : Нет
Параметр GMC формата : Без точки перехода
Параметр матрицы формата : Выборочная
Идентификатор кодека : XVID
Идентификатор кодека/Подсказка : XviD
Продолжительность : 1 ч. 37 м.
Битрейт : 1780 Кбит/сек
Ширина : 720 пикселей
Высота : 304 пикселя
Соотношение сторон : 2,35:1
Частота кадров : 23,976 (24000/1001) кадра/сек
Цветовое пространство : YUV
Субдискретизация насыщенности : 4:2:0
Битовая глубина : 8 бит
Тип развёртки : Прогрессивная
Метод сжатия : С потерями
Бит/(Пиксели*Кадры) : 0.339
Размер потока : 1,21 Гбайт (82%)
Библиотека кодирования : XviD 73

Аудио
Идентификатор : 1
Формат : AC-3
Формат/Информация : Audio Coding 3
Идентификатор кодека : 2000
Продолжительность : 1 ч. 37 м.
Вид битрейта : Постоянный
Битрейт : 384 Кбит/сек
Каналы : 6 каналов
Расположение каналов : Front: L C R, Side: L R, LFE
Частота : 48,0 КГц
Частота кадров : 31,250 кадров/сек (1536 SPF)
Битовая глубина : 16 бит
Метод сжатия : С потерями
Размер потока : 267 Мбайт (18%)
Выравнивание : Разделение по промежуткам
Продолжительность промежутка : 42 мс. (1,00 видеокадр)
Время предзагрузки промежутка : 500 мс.

pb.wtf



Скачать Титан через торрент http://pic1.kartinco.top/images/11/yvnvh.jpg Скачать фильм Титан через торрент бесплантно в хорошем качестве Описание: Американский военный Рик принимает участие в грандиозной космической программе. Лучшие умы планеты пытаются создать сверхлюдей, ... 10 10 16
Торрент: Зарегистрирован [2018-05-03 04:16] · скачан: 431 раз
Статус: √ проверено
Размер: 1.48 GB
Как cкачать? Как скачать Титан через торрент | qTorrent

% Раздел Тема Автор DL S | L
T Иностранные мультфильмы [ 1.63 GB ] Юные титаны вперед! / Teen Titans Go! To the Movies [2018 мультфильм BDRip-AVC] MVO [HDRezka Studio] bober100 Скачать
2 | 0
Фильмы (Blu-ray, BD-Remux, HDDVD) [ 25.84 GB ] Титан / The Titan [2018 BD Remux 1080p] MVO [NewStudio] + bober100 Скачать
1 | 0
Фильмы [HD 720p, 1080p] (Хороший звук DUB, MVO) [ 5.75 GB ] Битва Титанов / Clash of the Titans [2010 BDRip 1080p HEVC ] Мичман37 Скачать
1 | 0
Фильмы [HD 720p, 1080p] (Хороший звук DUB, MVO) [ 5.04 GB ] Гнев Титанов / Wrath of the Titans [2012 BDRip 1080p HEVC ] Мичман37 Скачать
1 | 0
Фильмы 2018 [DVDrip, WEB-DLRip, HDrip] (DUB, MVO) [ 1.42 GB ] Титан / The Titan [2018 BDRip] - Twi7ter Скачать
4 | 0
Фильмы (WEB-DL 720p, 1080p) [ 3.11 GB ] Титан / The Titan [2018 WEB-DL 1080p] bober100 Скачать
2 | 0
Фильмы [HD 720p, 1080p] (Хороший звук DUB, MVO) [ 5.03 GB ] Титан / The Titan [2018 BDRip 720p] MVO [NewStudio] + bober100 Скачать
1 | 0

28-11-2019 20:33  

Отключить всю рекламу на сайте

03-05-2018 19:33 Титан Скачать торрент  

как фильм то?pb.wtf



04-05-2018 02:22 Титан Скачать торрент  

shizolet писал(а):

как фильм то?

Скучно и убогоpb.wtf



    Дорогой пользователь! Огромная просьба, поблагодарите релизера, оцените раздачу и оставьте свои комментарий, если Вы скачали Титан через торрент бесплатно! Внесите свою лепту в развитие PiratBit!
    Комментировать посты могут только пользователи прошедшие не сложную регистрацию
    Показать сообщения:    

    Титан через торрент
    Скачать бесплатно Титан
    Титан скачать торрент
    Титан смотреть онлайн
    Cкачать фильм Титан бесплатно
    Титан скачать торрент в хорошем качестве
    Титан смотреть онлайн бесплатно в хорошем качестве


    Вы не можете начинать темы
    Вы не можете отвечать на сообщения
    Вы не можете редактировать свои сообщения
    Вы не можете удалять свои сообщения
    Вы не можете голосовать в опросах
    Вы не можете прикреплять файлы к сообщениям
    Вы можете скачивать файлы