Мега распродажа FORZA HORIZON 4 ULTIMATE+ВСЕ DLC+ОНЛАЙН всего за 499р. 349 руб. (супер цена). Внимание количество ограничено!!!

Лицензия

30

iTunes

мы

iTunes

1

1 сезон

Чернобыль

1 сезон

Ральф против интернета

MVO

Покемон. Детектив Пикачу

8 сезон

Игра престолов

iTunes

1+1

ИГРА 18+

pack

ВАЖНО

!!Акция!!

Alien_RageХит недели

RePack

Resident Evil 21
pack

RePack

Metro:Exodus

!!Акция!!

Alien_Rage

RePack

fifa19

RePack

Assassins Creed: Odyssey

RePack

NEED FOR SPEED™ PAYBACK

3 сезон

9 сезон

Бесстыжие 9 сезон

Все сериалы

все сериалы на PB.wtf

RePack

FAR CRY 5
Ребята, катастрофически не хватает 2730р. для оплаты серверов за МАЙ (всвязи с блокировками трафик упал в 3 раза), 1-2р., выручайте.
  

Леди-ястреб / Ladyhawke (Ричард Доннер) [1985, фэнтези, драма, комедия, приключения, BDRip 1080p by msltel] MVO, 3 x DVO, AVO, VO pb.wtf

Леди-ястреб через торрент pb.wtf

Размер: 14.19 GB | Добавлен: 1 год 1 мес. назад | Торрент скачан:44 раза
Скачать  

03-05-2018 05:46 Леди-ястреб Скачать торрент  

Название: Леди-ястреб
Оригинальное название: Ladyhawke
Год выпуска: 1985
Страна: США
Жанр: фэнтези, драма, комедия, приключения
Продолжительность: 02:01:14
Перевод: закадровый многоголосый, закадровый двухголосый, авторский, закадровый одноголосый

Режиссер: Ричард Доннер
В ролях: Мэттью Бродерик, Рутгер Хауэр, Мишель Пфайффер, Лео МакКерн, Джон Вуд, Кен Хатчинсон, Альфред Молина, Джанкарло Прете, Лорис Лодди, Алессандро Серра, Чарльз Борромел, Массимо Саркьелли, Николина Папетти, Рассел Кейс, Дональд Ходсон

О фильме: Фильм основан на средневековой европейской легенде о доблестном рыцаре и ослепительной красавице. Епископ, злой колдун, накладывает на них проклятье: по ночам рыцарь превращается в волка, а девушка — в ястреба днём. Слуги епископа преследуют их уже два года, но удача пока улыбается нашим героям. С помощью маленького воришки Филиппа они надеются вернуться в город, где под неусыпной охраной живёт их враг. Им нужно уничтожить злобного колдуна и снять с себя чёрное проклятье...



Качество: BDRip 1080p
Формат: MKV
Видео: MPEG-4 AVC, 13.3 Mбит/с, 1920x808, 23.976 кадр/с
Аудио 1: русский, AC3, 192 kbps, 2 ch, 48 kHz [закадровый многоголосый, НТВ Никита Прозоровский, Павел Кипнис, Александр Белый, Ольга Голованова]
Аудио 2: русский, DTS, 768 kbps, 6 ch, 48 kHz [закадровый двухголосый, Blu-ray CEE]
Аудио 3: русский, AC3, 448 kbps, 6 ch, 48 kHz [закадровый двухголосый, R5 OPT Андрей Ярославцев и Людмила Гнилова]
Аудио 4: русский, AC3, 192 kbps, 2 ch, 48 kHz [закадровый двухголосый, Ren-TV Игорь Тарадайкин и Ирина Савина]
Аудио 5: русский, AC3, 192 kbps, 2 ch, 48 kHz [авторский, Василий Горчаков]
Аудио 6: русский, AC3, 192 kbps, 2 ch, 48 kHz [закадровый одноголосый]
Аудио 7: английский, DTS, 1509 kbps, 6 ch, 48 kHz [оригинал]
Субтитры 1: русские
Субтитры 2: английские
Главы/чаптеры
Общее
Уникальный идентификатор : 186748463512808884921057081262284463265 (0x8C7E721F9B05FDE897C14C0AE90FDCA1)
Полное имя : D:\Video\Леди-ястреб.1985.BDRip.1080p by msltel.mkv
Формат : Matroska
Версия формата : Version 4 / Version 2
Размер файла : 14,2 Гбайт
Продолжительность : 2 ч. 1 м.
Общий поток : 16,8 Мбит/сек
Название фильма : Rip by msltel
Дата кодирования : UTC 2018-05-03 04:39:25
Программа кодирования : mkvmerge v8.2.0 ('World of Adventure') 64bit
Библиотека кодирования : libebml v1.3.1 + libmatroska v1.4.2

Видео
Идентификатор : 1
Формат : AVC
Формат/Информация : Advanced Video Codec
Профиль формата : High@L4.1
Настройки формата : CABAC / 4 Ref Frames
Параметр CABAC формата : Да
Параметр RefFrames формата : 4 кадра
Идентификатор кодека : V_MPEG4/ISO/AVC
Продолжительность : 2 ч. 1 м.
Битрейт : 13,3 Мбит/сек
Ширина : 1920 пикселей
Высота : 808 пикселей
Соотношение сторон : 2,40:1
Режим частоты кадров : Постоянный
Частота кадров : 23,976 (24000/1001) кадра/сек
Цветовое пространство : YUV
Субдискретизация насыщенности : 4:2:0
Битовая глубина : 8 бит
Тип развёртки : Прогрессивная
Бит/(Пиксели*Кадры) : 0.357
Размер потока : 11,2 Гбайт (79%)
Библиотека кодирования : x264 core 146 r2538 121396c
Настройки программы : cabac=1 / ref=4 / deblock=1:-3:-2 / analyse=0x3:0x113 / me=umh / subme=11 / psy=1 / psy_rd=1.00:0.15 / mixed_ref=1 / me_range=32 / chroma_me=1 / trellis=2 / 8x8dct=1 / cqm=0 / deadzone=21,11 / fast_pskip=0 / chroma_qp_offset=-3 / threads=6 / lookahead_threads=1 / sliced_threads=0 / nr=0 / decimate=1 / interlaced=0 / bluray_compat=0 / constrained_intra=0 / bframes=10 / b_pyramid=2 / b_adapt=2 / b_bias=0 / direct=1 / weightb=1 / open_gop=0 / weightp=2 / keyint=230 / keyint_min=23 / scenecut=40 / intra_refresh=0 / rc_lookahead=40 / rc=crf / mbtree=0 / crf=20.0 / qcomp=0.60 / qpmin=0 / qpmax=69 / qpstep=4 / vbv_maxrate=62500 / vbv_bufsize=78125 / crf_max=0.0 / nal_hrd=none / filler=0 / ip_ratio=1.40 / pb_ratio=1.30 / aq=1:1.00
Язык : English
Default : Да
Forced : Нет

Аудио #1
Идентификатор : 2
Формат : AC-3
Формат/Информация : Audio Coding 3
Идентификатор кодека : A_AC3
Продолжительность : 2 ч. 1 м.
Вид битрейта : Постоянный
Битрейт : 192 Кбит/сек
Каналы : 2 канала
Расположение каналов : Front: L R
Частота : 48,0 КГц
Частота кадров : 31,250 кадров/сек (1536 SPF)
Битовая глубина : 16 бит
Метод сжатия : С потерями
Размер потока : 166 Мбайт (1%)
Заголовок : MVO НТВ Никита Прозоровский, Павел Кипнис, Александр Белый, Ольга Голованова
Язык : Russian
ServiceKind/String : Complete Main
Default : Да
Forced : Нет

Аудио #2
Идентификатор : 3
Формат : DTS
Формат/Информация : Digital Theater Systems
Идентификатор кодека : A_DTS
Продолжительность : 2 ч. 1 м.
Вид битрейта : Постоянный
Битрейт : 768 Кбит/сек
Каналы : 6 каналов
Расположение каналов : Front: L C R, Side: L R, LFE
Частота : 48,0 КГц
Частота кадров : 93,750 кадра/сек (512 SPF)
Битовая глубина : 24 бит
Метод сжатия : С потерями
Размер потока : 665 Мбайт (5%)
Заголовок : DVO Blu-ray CEE
Язык : Russian
Default : Нет
Forced : Нет

Аудио #3
Идентификатор : 4
Формат : AC-3
Формат/Информация : Audio Coding 3
Идентификатор кодека : A_AC3
Продолжительность : 2 ч. 1 м.
Вид битрейта : Постоянный
Битрейт : 448 Кбит/сек
Каналы : 6 каналов
Расположение каналов : Front: L C R, Side: L R, LFE
Частота : 48,0 КГц
Частота кадров : 31,250 кадров/сек (1536 SPF)
Битовая глубина : 16 бит
Метод сжатия : С потерями
Размер потока : 388 Мбайт (3%)
Заголовок : DVO R5 OPT Андрей Ярославцев и Людмила Гнилова
Язык : Russian
ServiceKind/String : Complete Main
Default : Нет
Forced : Нет

Аудио #4
Идентификатор : 5
Формат : AC-3
Формат/Информация : Audio Coding 3
Идентификатор кодека : A_AC3
Продолжительность : 2 ч. 1 м.
Вид битрейта : Постоянный
Битрейт : 192 Кбит/сек
Каналы : 2 канала
Расположение каналов : Front: L R
Частота : 48,0 КГц
Частота кадров : 31,250 кадров/сек (1536 SPF)
Битовая глубина : 16 бит
Метод сжатия : С потерями
Размер потока : 166 Мбайт (1%)
Заголовок : DVO Ren-TV Игорь Тарадайкин и Ирина Савина
Язык : Russian
ServiceKind/String : Complete Main
Default : Нет
Forced : Нет

Аудио #5
Идентификатор : 6
Формат : AC-3
Формат/Информация : Audio Coding 3
Идентификатор кодека : A_AC3
Продолжительность : 2 ч. 1 м.
Вид битрейта : Постоянный
Битрейт : 192 Кбит/сек
Каналы : 2 канала
Расположение каналов : Front: L R
Частота : 48,0 КГц
Частота кадров : 31,250 кадров/сек (1536 SPF)
Битовая глубина : 16 бит
Метод сжатия : С потерями
Размер потока : 166 Мбайт (1%)
Заголовок : Василий Горчаков
Язык : Russian
ServiceKind/String : Complete Main
Default : Нет
Forced : Нет

Аудио #6
Идентификатор : 7
Формат : AC-3
Формат/Информация : Audio Coding 3
Идентификатор кодека : A_AC3
Продолжительность : 2 ч. 1 м.
Вид битрейта : Постоянный
Битрейт : 192 Кбит/сек
Каналы : 2 канала
Расположение каналов : Front: L R
Частота : 48,0 КГц
Частота кадров : 31,250 кадров/сек (1536 SPF)
Битовая глубина : 16 бит
Метод сжатия : С потерями
Размер потока : 166 Мбайт (1%)
Заголовок : закадровый одноголосый
Язык : Russian
ServiceKind/String : Complete Main
Default : Нет
Forced : Нет

Аудио #7
Идентификатор : 8
Формат : DTS
Формат/Информация : Digital Theater Systems
Идентификатор кодека : A_DTS
Продолжительность : 2 ч. 1 м.
Вид битрейта : Постоянный
Битрейт : 1509 Кбит/сек
Каналы : 6 каналов
Расположение каналов : Front: L C R, Side: L R, LFE
Частота : 48,0 КГц
Частота кадров : 93,750 кадра/сек (512 SPF)
Битовая глубина : 24 бит
Метод сжатия : С потерями
Размер потока : 1,28 Гбайт (9%)
Заголовок : original
Язык : English
Default : Нет
Forced : Нет

Текст #1
Идентификатор : 9
Формат : UTF-8
Идентификатор кодека : S_TEXT/UTF8
Идентификатор кодека/Информация : UTF-8 Plain Text
Продолжительность : 1 ч. 57 м.
Битрейт : 38 бит/сек
ElementCount : 821
Размер потока : 33,0 Кбайт (0%)
Заголовок : русские
Язык : Russian
Default : Нет
Forced : Нет

Текст #2
Идентификатор : 10
Формат : UTF-8
Идентификатор кодека : S_TEXT/UTF8
Идентификатор кодека/Информация : UTF-8 Plain Text
Продолжительность : 1 ч. 57 м.
Битрейт : 32 бит/сек
ElementCount : 956
Размер потока : 28,1 Кбайт (0%)
Заголовок : английские
Язык : English
Default : Нет
Forced : Нет

Меню
00:00:00.000 : :Chapter 01
00:00:15.557 : :Chapter 02
00:03:16.195 : :Chapter 03
00:08:50.488 : :Chapter 04
00:13:10.164 : :Chapter 05
00:15:44.944 : :Chapter 06
00:19:20.409 : :Chapter 07
00:22:24.676 : :Chapter 08
00:27:21.473 : :Chapter 09
00:30:10.141 : :Chapter 10
00:33:19.580 : :Chapter 11
00:38:01.862 : :Chapter 12
00:43:56.467 : :Chapter 13
00:48:39.750 : :Chapter 14
00:50:57.179 : :Chapter 15
00:56:11.076 : :Chapter 16
00:58:00.810 : :Chapter 17
01:03:31.224 : :Chapter 18
01:07:51.150 : :Chapter 19
01:13:03.921 : :Chapter 20
01:16:57.154 : :Chapter 21
01:22:56.930 : :Chapter 22
01:28:02.193 : :Chapter 23
01:33:09.083 : :Chapter 24
01:36:52.097 : :Chapter 25
01:39:08.108 : :Chapter 26
01:40:47.124 : :Chapter 27
01:44:19.169 : :Chapter 28
01:47:03.416 : :Chapter 29
01:49:10.710 : :Chapter 30
01:54:19.727 : :Chapter 31
01:57:39.427 : :Chapter 32
02:01:02.254 : :Chapter 33
pb.wtf



Скачать Леди-ястреб через торрент https://b.radikal.ru/b05/1805/67/3ba83dbf27f1.png Скачать фильм Леди-ястреб через торрент бесплантно в хорошем качестве О фильме: Фильм основан на средневековой европейской легенде о доблестном рыцаре и ослепительной красавице. Епископ, злой колдун, ... 10 10 6
Info! Золотая раздача, скачанное не засчитывается.
Торрент: Зарегистрирован [2018-05-03 05:46] · скачан: 44 раз
Статус: √ проверено
Размер: 14.19 GB
Как cкачать? Как скачать Леди-ястреб через торрент | qTorrent

% Раздел Тема Автор DL S | L
Фильмы [HD 720p, 1080p] (Хороший звук DUB, MVO) [ 5.44 GB ] Леди-ястреб / Ladyhawke [1985 BDRip 720p by msltel] MVO 3 x DVO AVO VO msltel Скачать
1 | 0


>> Регистрируемся здесь <<






Отзывы и комментарии о схеме читаем и пишем здесь: ---> Отзывы и комментарии о схеме

Новые благодарочки в телеграм довольных пользователей:
скриншот   скриншот   скриншот   скриншот   скриншот
    Дорогой пользователь! Огромная просьба, поблагодарите релизера, оцените раздачу и оставьте свои комментарий, если Вы скачали Леди-ястреб через торрент бесплатно! Внесите свою лепту в развитие PiratBit!
    Комментировать посты могут только пользователи прошедшие не сложную регистрацию
    Показать сообщения:    

    Леди-ястреб через торрент
    Скачать бесплатно Леди-ястреб
    Леди-ястреб скачать торрент
    Леди-ястреб смотреть онлайн
    Cкачать фильм Леди-ястреб бесплатно
    Леди-ястреб скачать торрент в хорошем качестве
    Леди-ястреб смотреть онлайн бесплатно в хорошем качестве


    Вы не можете начинать темы
    Вы не можете отвечать на сообщения
    Вы не можете редактировать свои сообщения
    Вы не можете удалять свои сообщения
    Вы не можете голосовать в опросах
    Вы не можете прикреплять файлы к сообщениям
    Вы можете скачивать файлы