Ссылка на приватное зеркало всего за 1$. Внимание количество ограничено!!!

OK

1+1

iTunes

мы

OK

1

WEB-DLRip

Джокер

Пифагор

Ведьмак / The Witcher сериал

Лицензия

ПШазам

ОК

Оно 2

iTunes

30
pack

Вам бонус

ВАЖНО

!!Акция!!

Alien_RageХит недели

RePack

Resident Evil 21

ИГРА 18+

pack

RePack

jed

RePack

fifa19

RePack

Assassins Creed: Odyssey

RePack

NEED FOR SPEED™ PAYBACK

4 сезон

9 сезон

Бесстыжие 9 сезон

Все сериалы

все сериалы на PB.wtf

RePack

FAR CRY 5
  

Мстители: Война бесконечности / Avengers: Infinity War (Энтони Руссо, Джо Руссо) [2018 г., фантастика, фэнтези, боевик, приключения, TS*PROPER*, Любительский (многоголосый)] pb.wtf

Скачать  

03-05-2018 14:36 Мстители: Война бесконечности Скачать торрент  

Мстители: Война бесконечности / Avengers: Infinity War
Год выпуска: 2018
Страна: США
Жанр: фантастика, фэнтези, боевик, приключения
Продолжительность: 02:18:45
Перевод: Любительский (многоголосый)

Режиссер: Энтони Руссо, Джо Руссо

В ролях: Роберт Дауни мл., Крис Хемсворт, Марк Руффало, Крис Эванс, Скарлетт Йоханссон, Дон Чидл, Бенедикт Камбербэтч, Том Холланд (II), Чэдвик Боузмэн, Зои Салдана

Описание: Пока Мстители и их союзники продолжают защищать мир от различных опасностей, с которыми не смог бы справиться один супергерой, новая угроза возникает из космоса: Танос. Межгалактический тиран преследует цель собрать все шесть Камней Бесконечности — артефакты невероятной силы, с помощью которых можно менять реальность по своему желанию. Всё, с чем Мстители сталкивались ранее, вело к этому моменту — судьба Земли никогда ещё не была столь неопределённой.

Качество: TS*PROPER*
Формат: AVI
Видео: h.264, 3 661 kb/s, 1280x528
Аудио#1: Русский (AC3, 2 ch, 384 Кбит/с)

Общее
Уникальный идентификатор : 182030853573451484006498128028152131646 (0x88F1DDFED98615CFA08514256884703E)
Полное имя : D:\Avengers Infinity War 2018.Pk.TS.PROPER.72Op.mkv
Формат : Matroska
Версия формата : Version 2
Размер файла : 4,24 Гбайт
Продолжительность : 2 ч. 29 м.
Режим общего битрейта : Переменный
Общий поток : 4047 Кбит/сек
Дата кодирования : UTC 2018-04-29 19:01:54
Программа кодирования : mkvmerge v8.3.0 ('Over the Horizon') 64bit
Библиотека кодирования : libebml v1.3.1 + libmatroska v1.4.2

Видео
Идентификатор : 1
Формат : AVC
Формат/Информация : Advanced Video Codec
Профиль формата : High@L4.1
Параметр CABAC формата : Да
Параметр RefFrames формата : 4 кадра
Идентификатор кодека : V_MPEG4/ISO/AVC
Продолжительность : 2 ч. 29 м.
Вид битрейта : Переменный
Битрейт : 3661 Кбит/сек
Максимальный битрейт : 4000 Кбит/сек
Ширина : 1280 пикселей
Высота : 528 пикселей
Соотношение сторон : 2,40:1
Режим частоты кадров : Постоянный
Частота кадров : 23,976 (24000/1001) кадра/сек
Стандарт вещания : Component
Цветовое пространство : YUV
Субдискретизация насыщенности : 4:2:0
Битовая глубина : 8 бит
Тип развёртки : Прогрессивная
Бит/(Пиксели*Кадры) : 0.221
Размер потока : 3,75 Гбайт (89%)
Default : Да
Forced : Нет
Цветовой диапазон : Limited
Основные цвета : BT.709
Характеристики трансфера : BT.709
Коэффициенты матрицы : BT.709

Аудио
Идентификатор : 2
Формат : AC-3
Формат/Информация : Audio Coding 3
Расширение режима : CM (complete main)
Параметр Endianness формата : Big
Идентификатор кодека : A_AC3
Продолжительность : 2 ч. 29 м.
Вид битрейта : Постоянный
Битрейт : 384 Кбит/сек
Каналы : 2 канала
Расположение каналов : Front: L R
Частота : 48,0 КГц
Частота кадров : 31,250 кадров/сек (1536 spf)
Метод сжатия : С потерями
Размер потока : 412 Мбайт (9%)
Default : Да
Forced : Нет

pb.wtf



Торрент не зареган: Не зарегистрирован ||
Добавлен: 2018-05-03 14:35
Скачано: 1 раз
% Раздел Тема Автор DL S | L
Ultra HD (UHD: 2K, 4K, 8K) — видео сверхвысокой чёткости [ 59.35 GB ] Мстители: Война бесконечности / Avengers: Infinity War [2018 UHD BDRemux 2160p] DUB [] + AVO sheker187 Скачать
1 | 0
3D Фильмы [ 12.46 GB ] Мстители: Война бесконечности 3Д / Avengers: Infinity War 3D [2018 BDRip 1080p] [Half OverUnder / Вертикальная анаморфная стереопара] DUB [] bober100 Скачать
2 | 0
Фильмы [HD 720p, 1080p] (Хороший звук DUB, MVO) [ 7.57 GB ] Мстители: Война бесконечности / Avengers: Infinity War [2018 BDRip 1080p HEVC ()] Мичман37 Скачать
4 | 0
3D Фильмы [ 8.68 GB ] Мстители: Война бесконечности в 3D / Avengers: Infinity War in 3D [2018 BDRip 1080p ] Анаглиф slaventi-69 Скачать
1 | 0
Ultra HD (UHD: 2K, 4K, 8K) — видео сверхвысокой чёткости [ 54.04 GB ] Мстители: Война бесконечности / Avengers: Infinity War [2018 UHD BDRemux 2160p] - [] sheker187 Скачать
3 | 0
Фильмы 2018 [DVDrip, WEB-DLRip, HDrip] (DUB, MVO) [ 2.77 GB ] Мстители: Война бесконечности / Avengers: Infinity War [2018 BDRip-AVC] DUB [] bober100 Скачать
2 | 0
Фильмы [HD 720p, 1080p] (Хороший звук DUB, MVO) [ 13.72 GB ] Мстители: Война бесконечности / Avengers: Infinity War [2018 BDRip 1080p] DUB [] bober100 Скачать
3 | 0

28-11-2019 20:33  

Отключить всю рекламу на сайте

    Дорогой пользователь! Огромная просьба, поблагодарите релизера, оцените раздачу и оставьте свои комментарий, если Вы скачали Мстители: Война бесконечности через торрент бесплатно! Внесите свою лепту в развитие PiratBit!
    Комментировать посты могут только пользователи прошедшие не сложную регистрацию
    Показать сообщения:    

    Мстители: Война бесконечности через торрент
    Скачать бесплатно Мстители: Война бесконечности
    Мстители: Война бесконечности скачать торрент
    Мстители: Война бесконечности смотреть онлайн
    Cкачать фильм Мстители: Война бесконечности бесплатно
    Мстители: Война бесконечности скачать торрент в хорошем качестве
    Мстители: Война бесконечности смотреть онлайн бесплатно в хорошем качестве


    Вы не можете начинать темы
    Вы не можете отвечать на сообщения
    Вы не можете редактировать свои сообщения
    Вы не можете удалять свои сообщения
    Вы не можете голосовать в опросах
    Вы не можете прикреплять файлы к сообщениям
    Вы можете скачивать файлы