новый адрес
Ссылка на приватное зеркало всего за 1$. Внимание количество ограничено!!!

iTunes

1+1

iTunes

мы

iTunes

1

iTunes

Чернобыль

iTunes

Ральф против интернета

Лицензия

ПШазам

Лицензия

Оно 2

Лицензия

30
pack

Вам бонус

ВАЖНО

!!Акция!!

Alien_RageХит недели

RePack

Resident Evil 21

ИГРА 18+

pack

RePack

jed

!!Акция!!

Alien_Rage

RePack

fifa19

RePack

Assassins Creed: Odyssey

RePack

NEED FOR SPEED™ PAYBACK

3 сезон

9 сезон

Бесстыжие 9 сезон

Все сериалы

все сериалы на PB.wtf

RePack

FAR CRY 5
Ребята, катастрофически не хватает 1900р. для оплаты серверов за Октябрь (всвязи с блокировками трафик упал в 3 раза), 1-2р., выручайте.
  

Поезд на Париж / The 15:17 to Paris (Клинт Иствуд) [2018, триллер, драма, история, BDRip-AVC] Dub [Лицензия] - ExKinoRay pb.wtf

Поезд на Париж через торрент pb.wtf

Размер: 1.45 GB | Добавлен: 1 год 6 мес. назад | Торрент скачан:300 раз
Скачать  

04-05-2018 02:10 Поезд на Париж Скачать торрент  

Название: Поезд на Париж
Оригинальное название: The 15:17 to Paris
Год выхода: 2018
Жанр: Триллер, драма, история
Страна: США
Перевод: Дублированный | Лицензия
Продолжительность: 01:33:51
Режиссер: Клинт Иствуд
В ролях: Спенсер Стоун, Энтони Сэдлер, Алек Скарлатос, Джуди Грир, Дженна Фишер, Рэй Корасани, Тони Хейл, Томас Леннон, Синква Уоллс, Ирен Уайт и др.

Описание: В центре сюжета события, произошедшие ранним вечером 21 августа 2015 года, когда весь мир, затаив дыхание, наблюдал за предотвращением террористической атаки в скоростном поезде N 9364 тремя бравыми молодыми американцами, которые в это время путешествовали по Европе.

rating

Файл
Формат: MKV
Качество: BDRip-AVC
Видео: MPEG-4 AVC, 720x302 (2.40:1), 23.976 fps, 1759 Kbps, 0.337 bit/pixel
Аудио: 48 kHz, AC3, 5.1 ch, ~448 kbps avg - Rus
Субтитры: Русские (форсированные, полные), английские
General
Unique ID : 238111582158794826438851085399414077622 (0xB3229F63ED227AF8B312ECDA18F0F8B6)
Complete name : D:\The.15.17.to.Paris.2018.BDRip.AVC.ExKinoRay.mkv
Format : Matroska
Format version : Version 2
File size : 1.45 GiB
Duration : 1 h 33 min
Overall bit rate : 2 204 kb/s
Movie name : The 15:17 to Paris (2018) from ExKinoRay
Encoded date : UTC 2018-05-15 19:54:15
Writing application : mkvmerge v5.6.0 ('Kenya Kane') built on May 27 2012 16:44:04
Writing library : libebml v1.2.3 + libmatroska v1.3.0

Video
ID : 1
Format : AVC
Format/Info : Advanced Video Codec
Format profile : High@L4.1
Format settings, CABAC : Yes
Format settings, ReFrames : 12 frames
Codec ID : V_MPEG4/ISO/AVC
Duration : 1 h 33 min
Bit rate : 1 759 kb/s
Width : 720 pixels
Height : 302 pixels
Display aspect ratio : 2.40:1
Frame rate mode : Constant
Frame rate : 23.976 (24000/1001) FPS
Original frame rate : 23.976 (23976/1000) FPS
Color space : YUV
Chroma subsampling : 4:2:0
Bit depth : 8 bits
Scan type : Progressive
Bits/(Pixel*Frame) : 0.337
Stream size : 1.12 GiB (78%)
Title : Enigma
Writing library : x264 core 152 r2851 ba24899
Encoding settings : cabac=1 / ref=12 / deblock=1:-2:-2 / analyse=0x3:0x113 / me=umh / subme=10 / psy=1 / psy_rd=1.05:0.10 / mixed_ref=1 / me_range=32 / chroma_me=1 / trellis=2 / 8x8dct=1 / cqm=0 / deadzone=21,11 / fast_pskip=0 / chroma_qp_offset=-3 / threads=9 / lookahead_threads=2 / sliced_threads=0 / nr=0 / decimate=0 / interlaced=0 / bluray_compat=0 / constrained_intra=0 / bframes=12 / b_pyramid=2 / b_adapt=2 / b_bias=0 / direct=3 / weightb=1 / open_gop=0 / weightp=2 / keyint=240 / keyint_min=23 / scenecut=40 / intra_refresh=0 / rc_lookahead=40 / rc=2pass / mbtree=0 / bitrate=1759 / ratetol=1.0 / qcomp=0.60 / qpmin=0 / qpmax=51 / qpstep=4 / cplxblur=20.0 / qblur=0.5 / vbv_maxrate=50000 / vbv_bufsize=62500 / nal_hrd=none / filler=0 / ip_ratio=1.40 / pb_ratio=1.30 / aq=3:0.90
Default : Yes
Forced : No
Color range : Limited
Color primaries : BT.709
Transfer characteristics : BT.709
Matrix coefficients : BT.709

Audio
ID : 2
Format : AC-3
Format/Info : Audio Coding 3
Mode extension : CM (complete main)
Format settings, Endianness : Big
Codec ID : A_AC3
Duration : 1 h 33 min
Bit rate mode : Constant
Bit rate : 448 kb/s
Channel(s) : 6 channels
Channel positions : Front: L C R, Side: L R, LFE
Sampling rate : 48.0 kHz
Frame rate : 31.250 FPS (1536 spf)
Compression mode : Lossy
Stream size : 301 MiB (20%)
Title : Dub (Blu-ray CEE)
Language : Russian
Default : Yes
Forced : No

Text #1
ID : 3
Format : UTF-8
Codec ID : S_TEXT/UTF8
Codec ID/Info : UTF-8 Plain Text
Title : Forced
Language : Russian
Default : Yes
Forced : No

Text #2
ID : 4
Format : UTF-8
Codec ID : S_TEXT/UTF8
Codec ID/Info : UTF-8 Plain Text
Title : Full
Language : Russian
Default : No
Forced : No

Text #3
ID : 5
Format : UTF-8
Codec ID : S_TEXT/UTF8
Codec ID/Info : UTF-8 Plain Text
Language : English
Default : No
Forced : No

Menu
00:00:00.000 : :Chapter 01
00:09:51.924 : :Chapter 02
00:19:23.203 : :Chapter 03
00:30:49.264 : :Chapter 04
00:44:00.304 : :Chapter 05
00:52:51.167 : :Chapter 06
01:04:22.608 : :Chapter 07
01:11:52.766 : :Chapter 08
01:21:46.151 : :Chapter 09
01:27:00.340 : :Chapter 10
Релиз от:

Автор релиза: pb.wtf



Скачать Поезд на Париж через торрент http://i105.fastpic.ru/big/2018/0503/22/e563738af6f361f79b96a34417d06222.jpg Скачать фильм Поезд на Париж через торрент бесплантно в хорошем качестве Описание: В центре сюжета события, произошедшие ранним вечером 21 августа 2015 года, когда весь мир, затаив дыхание, наблюдал за ... 7.8 10 14
Info! Золотая раздача, скачанное не засчитывается.
Торрент: Зарегистрирован [2018-05-15 20:15] · скачан: 300 раз
Статус: √ проверено
Размер: 1.45 GB
Как cкачать? Как скачать Поезд на Париж через торрент | qTorrent



Последний раз редактировалось: Enigma2010 (2018-05-16 03:44), всего редактировалось 4 раз(а)
Отключить всю рекламу на сайте

04-05-2018 12:22 Поезд на Париж Скачать торрент  

наверное впервые за всю свою историю америкашки сделали что-то полезное для других.. и то случайно. надо по такому поводу срочно снять фильм. о, блин, да вот же он! хронометраж геройского поступка полторы минуты, все остальное заполнено превращением простых американских пацанов в будущих героев. все полтора часа. начиная с пеленок. всем же интересно как из американцев герои получаются - явление то практически уникальное, без шуток.pb.wtf



15-05-2018 20:17 Поезд на Париж Скачать торрент  

Замена на лицензию.pb.wtf



17-05-2018 04:28 Поезд на Париж Скачать торрент  

tamburetko писал(а):

наверное впервые за всю свою историю америкашки сделали что-то полезное для других.. и то случайно. надо по такому поводу срочно снять фильм. о, блин, да вот же он! хронометраж геройского поступка полторы минуты, все остальное заполнено превращением простых американских пацанов в будущих героев. все полтора часа. начиная с пеленок. всем же интересно как из американцев герои получаются - явление то практически уникальное, без шуток.

Согласен.pb.wtf



21-05-2018 19:18 Поезд на Париж Скачать торрент  

ТАК СЕБЕpb.wtf



    Дорогой пользователь! Огромная просьба, поблагодарите релизера, оцените раздачу и оставьте свои комментарий, если Вы скачали Поезд на Париж через торрент бесплатно! Внесите свою лепту в развитие PiratBit!
    Комментировать посты могут только пользователи прошедшие не сложную регистрацию
    Показать сообщения:    

    Поезд на Париж через торрент
    Скачать бесплатно Поезд на Париж
    Поезд на Париж скачать торрент
    Поезд на Париж смотреть онлайн
    Cкачать фильм Поезд на Париж бесплатно
    Поезд на Париж скачать торрент в хорошем качестве
    Поезд на Париж смотреть онлайн бесплатно в хорошем качестве


    Вы не можете начинать темы
    Вы не можете отвечать на сообщения
    Вы не можете редактировать свои сообщения
    Вы не можете удалять свои сообщения
    Вы не можете голосовать в опросах
    Вы не можете прикреплять файлы к сообщениям
    Вы можете скачивать файлы