новый адрес
Ссылка на приватное зеркало всего за 1$. Внимание количество ограничено!!!

iTunes

1+1

iTunes

мы

WEB-DL

1

iTunes

Чернобыль

iTunes

Ральф против интернета

Лицензия

ПШазам

Лицензия

Оно 2

Лицензия

30
pack

Вам бонус

ВАЖНО

!!Акция!!

Alien_RageХит недели

RePack

Resident Evil 21

ИГРА 18+

pack

RePack

jed

!!Акция!!

Alien_Rage

RePack

fifa19

RePack

Assassins Creed: Odyssey

RePack

NEED FOR SPEED™ PAYBACK

3 сезон

9 сезон

Бесстыжие 9 сезон

Все сериалы

все сериалы на PB.wtf

RePack

FAR CRY 5
Ребята, катастрофически не хватает 1900р. для оплаты серверов за Октябрь (всвязи с блокировками трафик упал в 3 раза), 1-2р., выручайте.
  

Поезд на Париж / The 15:17 to Paris (Клинт Иствуд) [2018, триллер, драма, история, WEB-DLRip-AVC] DUB [iTunes] [AMZN Version] pb.wtf

Поезд на Париж через торрент pb.wtf

Размер: 1.88 GB | Добавлен: 1 год 7 мес. назад | Торрент скачан:148 раз
Скачать  

04-05-2018 02:22 Поезд на Париж Скачать торрент  

Поезд на Париж / The 15:17 to ParisГод выпуска: 2018
Страна: США
Жанр: триллер, драма, история
Продолжительность: 01:33:47
Перевод: Дублированный | iTunes
Субтитры: Русские

Режиссер: Клинт Иствуд

rating

В ролях:

Спенсер Стоун, Энтони Сэдлер, Алек Скарлатос, Джуди Грир, Дженна Фишер, Рэй Корасани, Тони Хейл, Томас Леннон, Синква Уоллс, Лиллиэн Соланж Бодуан

Описание:

В центре сюжета события, произошедшие ранним вечером 21 августа 2015 года, когда весь мир, затаив дыхание, наблюдал за предотвращением террористической атаки в скоростном поезде N 9364 тремя бравыми молодыми американцами, которые в это время путешествовали по Европе.

Качество: WEB-DLRip-AVC | AMZN Version
Формат: MKV

Видео: 1024x428 (2.40:1), 23,976 fps, x264 ~2 093 kbps avg, 0.199 bit/pixel
Аудио#1: 48 kHz, AC3 Dolby Digital, 3/2 (L,C,R,l,r) + LFE ch, ~384.00 kbps avg | RUS (iTunes)
Аудио#2: 48 kHz, AC3 Dolby Digital, 3/2 (L,C,R,l,r) + LFE ch, ~384.00 kbps avg | ENG
скриншот   скриншот   скриншот   скриншот  

Общее
Уникальный идентификатор : 180796401698813350388264472789948017901 (0x88041ED1AD5FAE358BC6206918EBACED)
Полное имя : E:OlLanDGroupThe.15.17.to.Paris.2018.WEB-DLRip(AVC).OlLanDGroup.mkv
Формат : Matroska
Версия формата : Version 4 / Version 2
Размер файла : 1,88 Гбайт
Продолжительность : 1 ч. 33 м.
Общий поток : 2863 Кбит/сек
Название фильма : The.15.17.to.Paris.2018 #TorpedoUK#
Дата кодирования : UTC 2018-05-03 14:20:10
Программа кодирования : mkvmerge v8.3.0 ('Over the Horizon') 64bit
Библиотека кодирования : libebml v1.3.1 + libmatroska v1.4.2

Видео
Идентификатор : 1
Формат : AVC
Формат/Информация : Advanced Video Codec
Профиль формата : High@L4.1
Параметр CABAC формата : Да
Параметр ReFrames формата : 10 кадров
Идентификатор кодека : V_MPEG4/ISO/AVC
Продолжительность : 1 ч. 33 м.
Битрейт : 2093 Кбит/сек
Ширина : 1024 пикселя
Высота : 428 пикселей
Соотношение сторон : 2,40:1
Режим частоты кадров : Постоянный
Частота кадров : 23,976 (24000/1001) кадра/сек
Цветовое пространство : YUV
Субдискретизация насыщенности : 4:2:0
Битовая глубина : 8 бит
Тип развёртки : Прогрессивная
Бит/(Пиксели*Кадры) : 0.199
Размер потока : 1,37 Гбайт (73%)
Библиотека кодирования : x264 core 146 r2538 121396c
Настройки программы : cabac=1 / ref=10 / deblock=1:-3:-3 / analyse=0x3:0x133 / me=umh / subme=11 / psy=1 / psy_rd=0.98:0.07 / mixed_ref=1 / me_range=48 / chroma_me=1 / trellis=2 / 8x8dct=1 / cqm=0 / deadzone=21,11 / fast_pskip=1 / chroma_qp_offset=-3 / threads=6 / lookahead_threads=1 / sliced_threads=0 / nr=0 / decimate=1 / interlaced=0 / bluray_compat=0 / constrained_intra=0 / bframes=10 / b_pyramid=2 / b_adapt=2 / b_bias=0 / direct=3 / weightb=1 / open_gop=0 / weightp=2 / keyint=240 / keyint_min=23 / scenecut=40 / intra_refresh=0 / rc_lookahead=40 / rc=2pass / mbtree=0 / bitrate=2093 / ratetol=1.0 / qcomp=0.60 / qpmin=0 / qpmax=69 / qpstep=4 / cplxblur=20.0 / qblur=0.5 / vbv_maxrate=50000 / vbv_bufsize=62500 / nal_hrd=none / filler=0 / ip_ratio=1.40 / pb_ratio=1.30 / aq=1:1.00
Язык : English
Default : Да
Forced : Нет

Аудио #1
Идентификатор : 2
Формат : AC-3
Формат/Информация : Audio Coding 3
Расширение режима : CM (complete main)
Параметр Endianness формата : Big
Идентификатор кодека : A_AC3
Продолжительность : 1 ч. 33 м.
Вид битрейта : Постоянный
Битрейт : 384 Кбит/сек
Каналы : 6 каналов
Расположение каналов : Front: L C R, Side: L R, LFE
Частота : 48,0 КГц
Частота кадров : 31,250 кадров/сек (1536 spf)
Битовая глубина : 16 бит
Метод сжатия : С потерями
Размер потока : 258 Мбайт (13%)
Заголовок : iTunes
Язык : Russian
Default : Да
Forced : Нет

Аудио #2
Идентификатор : 3
Формат : AC-3
Формат/Информация : Audio Coding 3
Расширение режима : CM (complete main)
Параметр Endianness формата : Big
Идентификатор кодека : A_AC3
Продолжительность : 1 ч. 33 м.
Вид битрейта : Постоянный
Битрейт : 384 Кбит/сек
Каналы : 6 каналов
Расположение каналов : Front: L C R, Side: L R, LFE
Частота : 48,0 КГц
Частота кадров : 31,250 кадров/сек (1536 spf)
Битовая глубина : 16 бит
Метод сжатия : С потерями
Размер потока : 258 Мбайт (13%)
Заголовок : Original
Язык : English
Default : Нет
Forced : Нет

Текст
Идентификатор : 4
Формат : UTF-8
Идентификатор кодека : S_TEXT/UTF8
Идентификатор кодека/Информация : UTF-8 Plain Text
Продолжительность : 1 ч. 31 м.
Битрейт : 100 бит/сек
Count of elements : 1484
Размер потока : 67,7 Кбайт (0%)
Заголовок : Full
Язык : Russian
Default : Нет
Forced : Нет

Меню
00:00:00.000 : en:1
00:09:48.000 : en:2
00:19:19.000 : en:3
00:30:46.000 : en:4
00:43:57.000 : en:5
00:52:47.000 : en:6
01:04:19.000 : en:7
01:11:49.000 : en:8
01:21:42.000 : en:9
01:26:56.000 : en:10

pb.wtf



Скачать Поезд на Париж через торрент http://img12.lostpic.net/2018/02/13/0a137f63cc64e819bdf18c4607968b6f.jpg Скачать фильм Поезд на Париж через торрент бесплантно в хорошем качестве Описание: В центре сюжета события, произошедшие ранним вечером 21 августа 2015 года, когда весь мир, затаив дыхание, наблюдал за ... 8.6 10 7
Торрент: Зарегистрирован [2018-05-04 02:22] · скачан: 148 раз
Статус: √ проверено
Размер: 1.88 GB
Как cкачать? Как скачать Поезд на Париж через торрент | qTorrent

% Раздел Тема Автор DL S | L
Фильмы [HD 720p, 1080p] (Хороший звук DUB, MVO) [ 7.2 GB ] Поезд на Париж / The 15:17 to Paris [2018 история BDRip 1080p] DUB [] bober100 Скачать
1 | 0
Фильмы 2018 [DVDrip, WEB-DLRip, HDrip] (DUB, MVO) [ 1.45 GB ] Поезд на Париж / The 15:17 to Paris [2018 история BDRip-AVC] - ExKinoRay Enigma2010 Скачать
1 | 0
Фильмы (Blu-ray, BD-Remux, HDDVD) [ 25.51 GB ] Поезд на Париж / The 15:17 to Paris [2018 история Blu-ray EUR 1080p] - [] sheker187 Скачать
1 | 0
Фильмы 2018 [DVDrip, WEB-DLRip, HDrip] (DUB, MVO) [ 1.46 GB ] Поезд на Париж / The 15:17 to Paris [2018 история BDRip] - [] Twi7ter Скачать
1 | 0
Фильмы [HD 720p, 1080p] (Хороший звук DUB, MVO) [ 3.42 GB ] Поезд на Париж / The 15:17 to Paris [2018 история BDRip 720p] DUB [] bober100 Скачать
1 | 0
Фильмы (Blu-ray, BD-Remux, HDDVD) [ 18.05 GB ] Поезд на Париж / The 15:17 to Paris [2018 история BD Remux 1080p] DUB [] bober100 Скачать
1 | 0
Видео для КПК и Смартфонов [ 357 MB ] Поезд на Париж / The 15:17 to Paris [2018 история WEB-DLRip КПК] Dub sergey82 Скачать
1 | 0

28-11-2019 20:33  

Отключить всю рекламу на сайте

04-05-2018 13:52 Поезд на Париж Скачать торрент  

Старик Иствуд - зашкварился.. Снял откровенный хлам.pb.wtf



    Дорогой пользователь! Огромная просьба, поблагодарите релизера, оцените раздачу и оставьте свои комментарий, если Вы скачали Поезд на Париж через торрент бесплатно! Внесите свою лепту в развитие PiratBit!
    Комментировать посты могут только пользователи прошедшие не сложную регистрацию
    Показать сообщения:    

    Поезд на Париж через торрент
    Скачать бесплатно Поезд на Париж
    Поезд на Париж скачать торрент
    Поезд на Париж смотреть онлайн
    Cкачать фильм Поезд на Париж бесплатно
    Поезд на Париж скачать торрент в хорошем качестве
    Поезд на Париж смотреть онлайн бесплатно в хорошем качестве


    Вы не можете начинать темы
    Вы не можете отвечать на сообщения
    Вы не можете редактировать свои сообщения
    Вы не можете удалять свои сообщения
    Вы не можете голосовать в опросах
    Вы не можете прикреплять файлы к сообщениям
    Вы можете скачивать файлы