новый адрес
Ссылка на приватное зеркало всего за 1$. Внимание количество ограничено!!!

iTunes

1+1

iTunes

мы

WEB-DL

1

iTunes

Чернобыль

iTunes

Ральф против интернета

Лицензия

ПШазам

Лицензия

Оно 2

Лицензия

30
pack

Вам бонус

ВАЖНО

!!Акция!!

Alien_RageХит недели

RePack

Resident Evil 21

ИГРА 18+

pack

RePack

jed

!!Акция!!

Alien_Rage

RePack

fifa19

RePack

Assassins Creed: Odyssey

RePack

NEED FOR SPEED™ PAYBACK

3 сезон

9 сезон

Бесстыжие 9 сезон

Все сериалы

все сериалы на PB.wtf

RePack

FAR CRY 5
Ребята, катастрофически не хватает 1900р. для оплаты серверов за Октябрь (всвязи с блокировками трафик упал в 3 раза), 1-2р., выручайте.
  

Титан / The Titan (Леннарт Рафф) [2018, фантастика, BDRip-AVC] Dub [iTunes], MVO [NewStudio] - ExKinoRay pb.wtf

Титан через торрент pb.wtf

Раздают: 4 [ 0 KB/s ]
Размер: 1.97 GB | Добавлен: 1 год 7 мес. назад | Торрент скачан:577 раз
Скачать  

04-05-2018 04:39 Титан Скачать торрент  

Информация о фильме
Название: Титан
Оригинальное название: The Titan
Год выхода: 2018
Жанр: фантастика, триллер
Страна: Великобритания, Испания, США
Студия: Amel Company, Motion Picture Capital, Nostromo Pictures
Продолжительность: 01:37:17
Перевод: Дублированный | iTunes
Профессиональный (многоголосый, закадровый) NewStudio
Режиссер: Леннарт Рафф
В ролях: Сэм Уортингтон, Тейлор Шиллинг, Том Уилкинсон, Агнесс Дейн, Натали Эммануэль, Ноа Джуп, Кори Джонсон, Александр Йованович, Диего Бонета, Аарон Хеффернан

Описание:
Американский военный Рик принимает участие в грандиозной космической программе. Лучшие умы планеты пытаются создать сверхлюдей, которые после гибели Земли обеспечат продолжение существования человечества на планете Титан. Однако эксперимент по скрещиванию генов Homo sapiens с инопланетным существом приводит к совершенно непредсказуемым последствиям.



Формат: MKV
Качество: BDRip-AVC
Видео: MPEG-4 AVC, 1024x428 (2.40:1), 24.000 fps, 1690 Kbps, 0.161 bit/pixel
Аудио #01: 48 kHz, AC3, 5.1, 384 Kbps | iTunes | RUS |
Аудио #02: 48 kHz, AC3, 5.1, 384 Kbps | NewStudio | RUS |
Аудио #03: 48 kHz, AC3, 5.1, 448 Kbps | Оригинал | ENG |
Субтитры: Русские (forced, full), английские
General
Unique ID : 175500515087692861608321635780450693051 (0x84082B732E69A81F83E5BBF5E271AFBB)
Complete name : D:\Titan.2018.2xRus.BDRip.AVC.ExKinoRay.mkv
Format : Matroska
Format version : Version 2
File size : 1.97 GiB
Duration : 1 h 37 min
Overall bit rate : 2 906 kb/s
Movie name : Titan 2018 from ExKinoRay
Encoded date : UTC 2018-05-05 01:05:04
Writing application : mkvmerge v5.6.0 ('Kenya Kane') built on May 27 2012 16:44:04
Writing library : libebml v1.2.3 + libmatroska v1.3.0

Video
ID : 1
Format : AVC
Format/Info : Advanced Video Codec
Format profile : High@L4.1
Format settings, CABAC : Yes
Format settings, ReFrames : 12 frames
Codec ID : V_MPEG4/ISO/AVC
Duration : 1 h 37 min
Bit rate : 1 690 kb/s
Width : 1 024 pixels
Height : 428 pixels
Display aspect ratio : 2.40:1
Frame rate mode : Constant
Frame rate : 24.000 FPS
Color space : YUV
Chroma subsampling : 4:2:0
Bit depth : 8 bits
Scan type : Progressive
Bits/(Pixel*Frame) : 0.161
Stream size : 1.11 GiB (56%)
Title : Enigma
Writing library : x264 core 152 r2851 ba24899
Encoding settings : cabac=1 / ref=12 / deblock=1:-2:-3 / analyse=0x3:0x113 / me=umh / subme=10 / psy=1 / psy_rd=1.05:0.10 / mixed_ref=1 / me_range=32 / chroma_me=1 / trellis=2 / 8x8dct=1 / cqm=0 / deadzone=21,11 / fast_pskip=0 / chroma_qp_offset=-3 / threads=12 / lookahead_threads=3 / sliced_threads=0 / nr=0 / decimate=0 / interlaced=0 / bluray_compat=0 / constrained_intra=0 / bframes=10 / b_pyramid=2 / b_adapt=2 / b_bias=0 / direct=3 / weightb=1 / open_gop=0 / weightp=2 / keyint=240 / keyint_min=24 / scenecut=40 / intra_refresh=0 / rc_lookahead=40 / rc=2pass / mbtree=0 / bitrate=1690 / ratetol=1.0 / qcomp=0.65 / qpmin=0 / qpmax=51 / qpstep=4 / cplxblur=20.0 / qblur=0.5 / vbv_maxrate=50000 / vbv_bufsize=62500 / nal_hrd=none / filler=0 / ip_ratio=1.40 / pb_ratio=1.30 / aq=3:0.90
Language : English
Default : Yes
Forced : No
Color range : Limited
Color primaries : BT.709
Transfer characteristics : BT.709
Matrix coefficients : BT.709

Audio #1
ID : 2
Format : AC-3
Format/Info : Audio Coding 3
Mode extension : CM (complete main)
Format settings, Endianness : Big
Codec ID : A_AC3
Duration : 1 h 37 min
Bit rate mode : Constant
Bit rate : 384 kb/s
Channel(s) : 6 channels
Channel positions : Front: L C R, Side: L R, LFE
Sampling rate : 48.0 kHz
Frame rate : 31.250 FPS (1536 spf)
Compression mode : Lossy
Stream size : 267 MiB (13%)
Title : iTunes
Language : Russian
Default : Yes
Forced : Yes

Audio #2
ID : 3
Format : AC-3
Format/Info : Audio Coding 3
Mode extension : CM (complete main)
Format settings, Endianness : Big
Codec ID : A_AC3
Duration : 1 h 37 min
Bit rate mode : Constant
Bit rate : 384 kb/s
Channel(s) : 6 channels
Channel positions : Front: L C R, Side: L R, LFE
Sampling rate : 48.0 kHz
Frame rate : 31.250 FPS (1536 spf)
Compression mode : Lossy
Stream size : 267 MiB (13%)
Title : MVO
Language : Russian
Default : No
Forced : No

Audio #3
ID : 4
Format : AC-3
Format/Info : Audio Coding 3
Mode extension : CM (complete main)
Format settings, Endianness : Big
Codec ID : A_AC3
Duration : 1 h 37 min
Bit rate mode : Constant
Bit rate : 448 kb/s
Channel(s) : 6 channels
Channel positions : Front: L C R, Side: L R, LFE
Sampling rate : 48.0 kHz
Frame rate : 31.250 FPS (1536 spf)
Compression mode : Lossy
Stream size : 312 MiB (15%)
Language : English
Default : No
Forced : No

Text #1
ID : 5
Format : UTF-8
Codec ID : S_TEXT/UTF8
Codec ID/Info : UTF-8 Plain Text
Title : forced
Language : Russian
Default : Yes
Forced : Yes

Text #2
ID : 6
Format : UTF-8
Codec ID : S_TEXT/UTF8
Codec ID/Info : UTF-8 Plain Text
Title : full
Language : Russian
Default : No
Forced : No

Text #3
ID : 7
Format : UTF-8
Codec ID : S_TEXT/UTF8
Codec ID/Info : UTF-8 Plain Text
Title : full
Language : English
Default : No
Forced : No

Text #4
ID : 8
Format : UTF-8
Codec ID : S_TEXT/UTF8
Codec ID/Info : UTF-8 Plain Text
Title : SDH
Language : English
Default : No
Forced : No

Menu
00:00:00.000 : en:00:00:00.000
00:08:09.542 : en:00:08:09.542
00:17:13.875 : en:00:17:13.875
00:26:26.833 : en:00:26:26.833
00:34:24.000 : en:00:34:24.000
00:41:54.750 : en:00:41:54.750
00:49:07.667 : en:00:49:07.667
00:58:29.292 : en:00:58:29.292
01:05:34.083 : en:01:05:34.083
01:13:52.292 : en:01:13:52.292
01:23:17.917 : en:01:23:17.917
01:31:54.250 : en:01:31:54.250
Релиз от:

Автор релиза: pb.wtf



Скачать Титан через торрент http://i105.fastpic.ru/big/2018/0503/24/ba2d0bad0ccb8d2ac4edcf5ab14a1524.png Скачать фильм Титан через торрент бесплантно в хорошем качестве Описание:Американский военный Рик принимает участие в грандиозной космической программе. Лучшие умы планеты пытаются создать сверхлюдей, ... 9.1 10 12
Info! Золотая раздача, скачанное не засчитывается.
Торрент: Зарегистрирован [2018-05-05 01:46] · скачан: 577 раз
Статус: √ проверено
Размер: 1.97 GB
Как cкачать? Как скачать Титан через торрент | qTorrent

28-11-2019 20:33  

Отключить всю рекламу на сайте

    Дорогой пользователь! Огромная просьба, поблагодарите релизера, оцените раздачу и оставьте свои комментарий, если Вы скачали Титан через торрент бесплатно! Внесите свою лепту в развитие PiratBit!
    Комментировать посты могут только пользователи прошедшие не сложную регистрацию
    Показать сообщения:    

    Титан через торрент
    Скачать бесплатно Титан
    Титан скачать торрент
    Титан смотреть онлайн
    Cкачать фильм Титан бесплатно
    Титан скачать торрент в хорошем качестве
    Титан смотреть онлайн бесплатно в хорошем качестве


    Вы не можете начинать темы
    Вы не можете отвечать на сообщения
    Вы не можете редактировать свои сообщения
    Вы не можете удалять свои сообщения
    Вы не можете голосовать в опросах
    Вы не можете прикреплять файлы к сообщениям
    Вы можете скачивать файлы