Ссылка на приватное зеркало нашего сайта всего за 1$. Внимание количество ограничено!!!

2 сезон

iTunes

1 сезон

1

iTunes

iTunes

iTunes

1 сезон

RePack

30

ИГРА 18+

pack

ВАЖНО

!!Акция!!

Alien_RageХит недели

RePack

MK11
pack

Забери бонус

RePack

jed

!!Акция!!

Alien_Rage

RePack

fifa19

RePack

Assassins Creed: Odyssey

RePack

NEED FOR SPEED™ PAYBACK

4 сезон

9 сезон

Бесстыжие 9 сезон

Все сериалы

все сериалы на PB.wtf

RePack

FAR CRY 5
  

Любовь по-японски / Серии: 1-2 из 2 (Ольга Ланд) [2018, Мелодрама, SATRip] pb.wtf

Любовь по-японски через торрент pb.wtf

Размер: 1.17 GB | Добавлен: 2 года 5 мес. назад | Торрент скачан:54 раза
Скачать  

04-05-2018 11:12 Любовь по-японски Скачать торрент  

Любовь по-японскиГод выпуска: 2018
Страна: Россия
Жанр: Мелодрама
Продолжительность: ~ 00:46:01
Субтитры: отсутствуют

Режиссер: Ольга Ланд



В ролях:

Мария Шукшина, Максим Битюков, Олег Филипчик, Нина Персиянинова, Евгений Воловенко, Артём Губин, Я Цзоу Фэй, Тома Манцурова

Описание:

Дружная семья Золотаревых готовится отметить серебряную свадьбу. За 25 лет Лиля и Виталик поставили на ноги двоих детей, построили великолепный дом, обросли связями и друзьями и, как оказалось, совершенно осточертели друг другу. Юбилей свадьбы завершается грандиозным скандалом, после которого Виталик уходит из дома. В ресторане он встречает загадочную японку, и эта встреча круто меняет жизнь обоих супругов...

Качество: SATRip
Формат: AVI

Видео: XviD, 1624 Кбит/с, 720x400
Аудио: AC3, 2 ch, 192 Кбит/с
скриншот   скриншот   скриншот   скриншот   скриншот  

Общее
Полное имя : F:\Любовь по-японски.2017.SATRip.by.Nicodem.Files-x\01.Любовь по-японски.2017.SATRip.by.Nicodem.Files-x.avi
Формат : AVI
Формат/Информация : Audio Video Interleave
Размер файла : 601 Мбайт
Продолжительность : 46 м. 1 с.
Общий поток : 1825 Кбит/сек
Программа кодирования : VirtualDubMod 1.5.10.3 | www.virtualdub-fr.org || (build 2550/release)
Библиотека кодирования : VirtualDubMod build 2550/release

Видео
Идентификатор : 0
Формат : MPEG-4 Visual
Профиль формата : Advanced Simple@L5
Параметр BVOP формата : 1
Параметр QPel формата : Да
Параметр GMC формата : Без точки перехода
Параметр матрицы формата : Выборочная
Идентификатор кодека : XVID
Идентификатор кодека/Подсказка : XviD
Продолжительность : 46 м. 1 с.
Битрейт : 1624 Кбит/сек
Ширина : 720 пикселей
Высота : 400 пикселей
Соотношение сторон : 16:9
Частота кадров : 25,000 кадров/сек
Цветовое пространство : YUV
Субдискретизация насыщенности : 4:2:0
Битовая глубина : 8 бит
Тип развёртки : Прогрессивная
Метод сжатия : С потерями
Бит/(Пиксели*Кадры) : 0.226
Размер потока : 535 Мбайт (89%)
Библиотека кодирования : XviD 73

Аудио
Идентификатор : 1
Формат : AC-3
Формат/Информация : Audio Coding 3
Расширение режима : CM (complete main)
Параметр Endianness формата : Big
Идентификатор кодека : 2000
Продолжительность : 46 м. 1 с.
Вид битрейта : Постоянный
Битрейт : 192 Кбит/сек
Каналы : 2 канала
Расположение каналов : Front: L R
Частота : 48,0 КГц
Частота кадров : 31,250 кадров/сек (1536 spf)
Метод сжатия : С потерями
Размер потока : 63,2 Мбайт (11%)
Выравнивание : Разделение по промежуткам
Продолжительность промежутка : 40 мс. (1,00 видеокадр)
Время предзагрузки промежутка : 500 мс.

Внимание! Раздача ведётся путём добавления новых серий; при каждом добавлении создfётся новый торрент. Чтобы начать докачку новой серии, пользователям необходимо сделать следующее: (1) остановить скачивание, (2) удалить старый торрент у себя из клиента (старые серии удалять не надо), (3) скачать новый торрент и запустить его у себя в клиенте вместо старого, при этом указать клиенту путь в старую папку куда и должно происходить скачивание новых серий.

Ваш клиент при этом должен произвести хеширование (проверку) старой папки (если не производит сам - помогите ему сделать это), и будет докачивать только те серии которых у вас ещё нет. Старые серии при этом не удаляются, а продолжают раздаваться!

Eсли вы уже удалили старые серии, то предотвратить повторную закачку старых серий можно, отжав галочку в соответсвующих местах при запуске нового торрента.
pb.wtf



Скачать Любовь по-японски через торрент http://i105.fastpic.ru/big/2018/0504/1b/f0140e06fd7bc7d25ca9d1604b87491b.jpg Скачать фильм Любовь по-японски через торрент бесплантно в хорошем качестве Описание: Дружная семья Золотаревых готовится отметить серебряную свадьбу. За 25 лет Лиля и Виталик поставили на ноги двоих детей, ... 7.8 10 4
Торрент: Зарегистрирован [2018-05-04 13:03] · скачан: 54 раз
Статус: √ проверено
Размер: 1.17 GB
Как cкачать? Как скачать Любовь по-японски через торрент | qTorrent

28-11-2019 20:33  

Отключить всю рекламу на сайте

    Дорогой пользователь! Огромная просьба, поблагодарите релизера, оцените раздачу и оставьте свои комментарий, если Вы скачали Любовь по-японски через торрент бесплатно! Внесите свою лепту в развитие PiratBit!
    Комментировать посты могут только пользователи прошедшие не сложную регистрацию
    Показать сообщения:    

    Любовь по-японски через торрент
    Скачать бесплатно Любовь по-японски
    Любовь по-японски скачать торрент
    Любовь по-японски смотреть онлайн
    Cкачать фильм Любовь по-японски бесплатно
    Любовь по-японски скачать торрент в хорошем качестве
    Любовь по-японски смотреть онлайн бесплатно в хорошем качестве


    Вы не можете начинать темы
    Вы не можете отвечать на сообщения
    Вы не можете редактировать свои сообщения
    Вы не можете удалять свои сообщения
    Вы не можете голосовать в опросах
    Вы не можете прикреплять файлы к сообщениям
    Вы можете скачивать файлы