Ссылка на приватное зеркало всего за 1$. Внимание количество ограничено!!!

OK

1+1

iTunes

мы

OK

1

WEB-DLRip

Джокер

Пифагор

Ведьмак / The Witcher сериал

iTunes

ПШазам

ОК

Оно 2

iTunes

30
pack

Вам бонус

ВАЖНО

!!Акция!!

Alien_RageХит недели

RePack

Resident Evil 21

ИГРА 18+

pack

RePack

jed

RePack

fifa19

RePack

Assassins Creed: Odyssey

RePack

NEED FOR SPEED™ PAYBACK

4 сезон

9 сезон

Бесстыжие 9 сезон

Все сериалы

все сериалы на PB.wtf

RePack

FAR CRY 5
  

Даже у ягнят есть зубы / Even Lambs Have Teeth (Терри Майлз) [2015, триллер, BDRip 720p] MVO ["Синема УС"] pb.wtf

Даже у ягнят есть зубы через торрент pb.wtf

Размер: 3.72 GB | Добавлен: 1 год 8 мес. назад | Торрент скачан:64 раза
Скачать  

04-05-2018 14:11 Даже у ягнят есть зубы Скачать торрент  

Даже у ягнят есть зубы / Even Lambs Have TeethГод выпуска: 2015
Страна: Франция, Канада
Жанр: триллер
Продолжительность: 01:21:12
Перевод: Любительский (многоголосый) | "Синема УС"
Субтитры: отсутствуют

Режиссер: Терри Майлз

rating

В ролях:

Кирстен Праут, Тиера Сковбай, Майкл Карл Ричардс, Крэйг Марч, Гаррет Блэк, Джеймисон Паркер, Кристиан Слоун, Дэниэл Арнольд, Грэм Беддос, Монека Делэйн

Описание:

Подвергшись насилию со стороны местных психопатов в небольшом городке, две девушки решают изощренно отомстить своим мучителям.

Качество: BDRip 720p
Формат: MKV

Видео: ~ 5988 kbps, 1280x568, 23.976 fps
Аудио#1: AC3, 2 ch, 384 Кбит/с
скриншот  скриншот  скриншот  

Общее
Уникальный идентификатор : 230097890434435313186457272181509892101 (0xAD1B3DE2336BA64A98C9EAAB8BD8A805)
Полное имя : F:\Even.Lambs.Have.Teeth.2015.Pof.BDRip.720p_KOSHARA.mkv
Формат : Matroska
Версия формата : Version 2
Размер файла : 3,72 Гбайт
Продолжительность : 1 ч. 21 м.
Режим общего битрейта : Переменный
Общий поток : 6567 Кбит/сек
Дата кодирования : UTC 2018-05-03 17:34:48
Программа кодирования : mkvmerge v8.3.0 ('Over the Horizon') 64bit
Библиотека кодирования : libebml v1.3.1 + libmatroska v1.4.2

Видео
Идентификатор : 1
Формат : AVC
Формат/Информация : Advanced Video Codec
Профиль формата : High@L4.1
Параметр CABAC формата : Да
Параметр RefFrames формата : 4 кадра
Идентификатор кодека : V_MPEG4/ISO/AVC
Продолжительность : 1 ч. 21 м.
Вид битрейта : Переменный
Битрейт : 5988 Кбит/сек
Максимальный битрейт : 6800 Кбит/сек
Ширина : 1280 пикселей
Высота : 568 пикселей
Соотношение сторон : 2,25:1
Режим частоты кадров : Постоянный
Частота кадров : 23,976 (24000/1001) кадра/сек
Стандарт вещания : Component
Цветовое пространство : YUV
Субдискретизация насыщенности : 4:2:0
Битовая глубина : 8 бит
Тип развёртки : Прогрессивная
Бит/(Пиксели*Кадры) : 0.344
Размер потока : 3,40 Гбайт (91%)
Default : Да
Forced : Нет
Цветовой диапазон : Limited
Основные цвета : BT.709
Характеристики трансфера : BT.709
Коэффициенты матрицы : BT.709

Аудио
Идентификатор : 2
Формат : AC-3
Формат/Информация : Audio Coding 3
Расширение режима : CM (complete main)
Параметр Endianness формата : Big
Идентификатор кодека : A_AC3
Продолжительность : 1 ч. 21 м.
Вид битрейта : Постоянный
Битрейт : 448 Кбит/сек
Каналы : 2 канала
Расположение каналов : Front: L R
Частота : 48,0 КГц
Частота кадров : 31,250 кадров/сек (1536 spf)
Метод сжатия : С потерями
Размер потока : 260 Мбайт (7%)
Default : Да
Forced : Нет

pb.wtf



Скачать Даже у ягнят есть зубы через торрент http://img12.lostpic.net/2018/05/04/db3875352d84775a3150b738bb331cfc.jpg Скачать фильм Даже у ягнят есть зубы через торрент бесплантно в хорошем качестве Описание: Подвергшись насилию со стороны местных психопатов в небольшом городке, две девушки решают изощренно отомстить своим ... 7.3 10 8
Торрент: Зарегистрирован [2018-05-04 14:11] · скачан: 64 раз
Статус: T временная
Размер: 3.72 GB
Как cкачать? Как скачать Даже у ягнят есть зубы через торрент | qTorrent

% Раздел Тема Автор DL S | L
T Фильмы (мультфильмы) cо спонсором показа (Новинки AVI/MKV) [ 1.37 GB ] Даже у ягнят есть зубы / Even Lambs Have Teeth [2015 HDRip] MVO ["Синема УС"] bober100 Скачать
1 | 0
T Фильмы 2016 [DVDrip, WEB-DLRip, HDrip] (DUB, MVO) [ 1.37 GB ] Даже у ягнят есть зубы / Even Lambs Have Teeth [2016 WEB-DLRip Любительский ] СПД sanekbest1 Скачать
1 | 0

28-11-2019 20:33  

Отключить всю рекламу на сайте

    Дорогой пользователь! Огромная просьба, поблагодарите релизера, оцените раздачу и оставьте свои комментарий, если Вы скачали Даже у ягнят есть зубы через торрент бесплатно! Внесите свою лепту в развитие PiratBit!
    Комментировать посты могут только пользователи прошедшие не сложную регистрацию
    Показать сообщения:    

    Даже у ягнят есть зубы через торрент
    Скачать бесплатно Даже у ягнят есть зубы
    Даже у ягнят есть зубы скачать торрент
    Даже у ягнят есть зубы смотреть онлайн
    Cкачать фильм Даже у ягнят есть зубы бесплатно
    Даже у ягнят есть зубы скачать торрент в хорошем качестве
    Даже у ягнят есть зубы смотреть онлайн бесплатно в хорошем качестве


    Вы не можете начинать темы
    Вы не можете отвечать на сообщения
    Вы не можете редактировать свои сообщения
    Вы не можете удалять свои сообщения
    Вы не можете голосовать в опросах
    Вы не можете прикреплять файлы к сообщениям
    Вы можете скачивать файлы