Достать ножи: Стеклянная луковица

MVO

Добыча

Дубляж

Уэнсдэй

1 сезон

Тор

Дубляж

13 клиническая

1 сезон

Жестокая ночь

MVO

Одни из нас

1 сезон

Deluxe

pack

Рекомендуем

30

Пиратка

ВАЖНО

ВАЖНО

Ghostwire

Пиратка

jed

RePack

nioh2

RePack

RDR2

RePack

NEED FOR SPEED™ PAYBACK

RePack

скачать торрент

Кинопоиск HD

Острые козырьки 6 сезон

6 сезон

FAR CRY 6

RePack

скачать торрент

Лицензия

скачать торрент

MVO

1

1 сезон

скачать торрент

1 сезон

скачать торрент

Лицензия

  

Простоквашино / Серии: 1-69 из 82 (Михаил Солошенко) [2018-2021, Мультфильм, семейный, WEB-DLRip]

Простоквашино через торрент pb.wtf

Размер: 7.01 GB | Добавлен: 11 мес. назад | Торрент скачан:49 раз
Смотреть онлайн | Скачать | Поддержите нас   

04-05-2018 14:33 Простоквашино Скачать торрент  

Простоквашино
Год выпуска: 2018-2021
Страна: Россия
Жанр: Мультфильм, семейный
Продолжительность: ~ 00:07:00
Перевод: Не требуется
Субтитры: отсутствуют

Режиссер: Михаил Солошенко



В ролях: Антон Табаков, Юлия Меньшова, Иван Охлобыстин, Гарик Сукачёв, Алексей Онежен

Описание: Союзмультфильм планирует снять несколько десятков новых эпизодов, которые станут продолжением серии анимационных лент Трое из Простоквашино. Задача нового проекта — показать, как изменилось "Простоквашино" вместе со страной, все-таки прошло 20 лет, а также вовлечь детей в новые приключения персонажей, которые говорят о вечных ценностях, таких как семья, дом, забота о близких - сказала председатель правления Союзмультфильма Юлиана Слащева. В период с 2018 по 2020 год в свет выйдет 30 серий мультфильма о деревне Простоквашино и ее героях.

Качество: WEB-DLRip
Формат: AVI

Видео: 720x400 (1.80:1), XviD ~2000 kbps avg, 0.28 bit/pixel
Аудио: 48 kHz, MPEG Layer 3, 2 ch, ~128.00 kbps
скриншот   скриншот   скриншот   скриншот  

Общее
Полное имя : F:\Prostokvashino\Prostokvashino.01.avi
Формат : AVI
Формат/Информация : Audio Video Interleave
Размер файла : 99,7 Мбайт
Продолжительность : 6 м. 30 с.
Общий поток : 2145 Кбит/сек
Программа кодирования : VirtualDubMod 1.5.10.3 | www.virtualdub-fr.org || (build 2550/release)

Видео
Идентификатор : 0
Формат : MPEG-4 Visual
Профиль формата : Advanced [email protected]
Параметр BVOP формата : 1
Параметр QPel формата : Нет
Параметр GMC формата : Без точки перехода
Параметр матрицы формата : Выборочная
Идентификатор кодека : XVID
Идентификатор кодека/Подсказка : XviD
Продолжительность : 6 м. 30 с.
Битрейт : 2007 Кбит/сек
Ширина : 720 пикселей
Высота : 400 пикселей
Соотношение сторон : 16:9
Частота кадров : 25,000 кадров/сек
Цветовое пространство : YUV
Субдискретизация насыщенности : 4:2:0
Битовая глубина : 8 бит
Тип развёртки : Прогрессивная
Метод сжатия : С потерями
Бит/(Пиксели*Кадры) : 0.279
Размер потока : 93,3 Мбайт (94%)
Библиотека кодирования : XviD 73

Аудио
Идентификатор : 1
Формат : MPEG Audio
Версия формата : Version 1
Профиль формата : Layer 3
Режим : Joint stereo
Расширение режима : MS Stereo
Идентификатор кодека : 55
Идентификатор кодека/Подсказка : MP3
Продолжительность : 6 м. 30 с.
Вид битрейта : Постоянный
Битрейт : 128 Кбит/сек
Каналы : 2 канала
Частота : 44,1 КГц
Метод сжатия : С потерями
Размер потока : 5,95 Мбайт (6%)
Выравнивание : Разделение по промежуткам
Продолжительность промежутка : 40 мс. (1,00 видеокадр)
Время предзагрузки промежутка : 500 мс.
Библиотека кодирования : LAME3.99r
Настройки программы : -m j -V 4 -q 2 -lowpass 17 -b 128

Когда раздача ведётся путём добавления новых серий, при каждом добавлении создётся новый торрент. Чтобы начать докачку новой серии, пользователям необходимо сделать следующее:
(1) остановить скачивание,
(2) удалить старый торрент у себя из клиента (старые серии удалять не надо),
(3) скачать новый торрент и запустить его у себя в клиенте вместо старого, при этом указать клиенту путь в старую папку, куда и должно происходить скачивание новых серий.
Ваш клиент при этом должен произвести хеширование (проверку) старой папки (если не производит сам - помогите ему сделать это), и будет докачивать только те серии, которых у вас ещё нет. Старые серии при этом не удаляются, а продолжают раздаваться!
Eсли вы уже удалили старые серии, то предотвратить повторную закачку старых серий можно, отжав галочку в соответсвующих местах при запуске нового торрента. По возможности, желательно не удалять старые серии как можно дольше, чтобы релизёр не столько продолжал раздавать старые серии, а смог сконцентрироваться на новых.



Скачать Простоквашино через торрент https://st-kp-yandex-net.translate.goog/images/film_iphone/iphone360_1115407.jpg Скачать, смотреть онлайн Простоквашино бесплантно в хорошем качестве Описание: Союзмультфильм планирует снять несколько десятков новых эпизодов, которые станут продолжением серии анимационных лент Трое из ... 8.7 10 32
Торрент: Зарегистрирован [2022-03-06 04:31] · скачан: 49 раз
Статус: √ проверено
Размер: 7.01 GB
Как cкачать? Как скачать Простоквашино через торрент | UTorrent

% Раздел Тема Автор DL S | L
Мультсериалы [ 16.1 GB ] Простоквашино / Сезон: 1-3 / Серии: 1-68 из 82 + Спец.выпуск | | 1080p killermax2013 Скачать
1 | 0
Мультсериалы [ 11.12 GB ] Простоквашино / Сезон: 1-4 / Серии: 1-89 из 90 + Бонусы | | 720p bober100 Скачать
1 | 0
Мультсериалы [ 2.6 GB ] Простоквашино / Серии: 1-26 из 30 | | DLRip-AVC bober100 Скачать
1 | 0



Последний раз редактировалось: bober100 (2022-03-06 04:31), всего редактировалось 23 раз(а)

28-11-2019 20:33  


Отключить вcю реклaмy на сайте, в т.ч. и в плеере онлайн просмотра!

04-05-2018 19:00 Простоквашино Скачать торрент  

зачем они это делают



10-09-2018 13:39 Простоквашино Скачать торрент  

жутчайшее гуано



10-09-2018 16:36 Простоквашино Скачать торрент  

Мало того что щлак и этого я ребенку не покажу,лучше еще раз посмотрит старый вариант так и нарисовано ужаснейше!



12-03-2022 17:15 Простоквашино Скачать торрент  

классный мульт Как раз ребёнку и покажу чем американщину пиндосовскую всякую!



12-03-2022 17:17 Простоквашино Скачать торрент  

К просмотру обязательно!



    Дорогой пользователь! Огромная просьба, поблагодарите релизера, оцените раздачу и оставьте свои комментарий, если Вы скачали Простоквашино через торрент бесплатно!!
    Комментировать посты могут только пользователи прошедшие не сложную регистрацию
    Показать сообщения:    


    Простоквашино через торрент
    Скачать бесплатно Простоквашино
    Простоквашино скачать торрент
    Простоквашино смотреть онлайн
    Cкачать фильм Простоквашино бесплатно
    Простоквашино скачать торрент в хорошем качестве
    Простоквашино смотреть онлайн бесплатно в хорошем качестве
    Вы не можете начинать темы
    Вы не можете отвечать на сообщения
    Вы не можете редактировать свои сообщения
    Вы не можете удалять свои сообщения
    Вы не можете голосовать в опросах
    Вы не можете прикреплять файлы к сообщениям
    Вы можете скачивать файлы
    Простоквашино / Серии: 1-69 из 82 [2018-2021, Мультфильм, семейный, WEB-DLRip] смотреть онлайн, скачать торрент picoco.icu