Ссылка на приватное зеркало всего за 1$. Внимание количество ограничено!!!

OK

1+1

iTunes

мы

OK

1

WEB-DLRip

Джокер

Пифагор

Ведьмак / The Witcher сериал

iTunes

ПШазам

ОК

Оно 2

iTunes

30
pack

Вам бонус

ВАЖНО

!!Акция!!

Alien_RageХит недели

RePack

Resident Evil 21

ИГРА 18+

pack

RePack

jed

RePack

fifa19

RePack

Assassins Creed: Odyssey

RePack

NEED FOR SPEED™ PAYBACK

4 сезон

9 сезон

Бесстыжие 9 сезон

Все сериалы

все сериалы на PB.wtf

RePack

FAR CRY 5
  

Грязные копы / Dirty (Даниэль Рингни) [2016, Триллер, криминал, WEB-DL 720p] MVO ["Синема УС"] pb.wtf

Грязные копы через торрент pb.wtf

Размер: 3.29 GB | Добавлен: 1 год 8 мес. назад | Торрент скачан:66 раз
Скачать  

04-05-2018 15:29 Грязные копы Скачать торрент  

Грязные копы / DirtyГод выпуска: 2016
Страна: США
Жанр: Триллер, криминал
Продолжительность: 01:31:17
Перевод: Любительский (многоголосый) | "Синема УС"
Субтитры: отсутствуют

Режиссер: Даниэль Рингни

rating

В ролях:

Роджер Гуэнвёр Смит, Пол Элиа, Энтони Джон Дэнисон, Адриан Гаета, Кристин Минтер, Александра Пол, Чаз Боно, Дэвид Фолсом, Дэвид Соболев, Гари Стургис

Описание:

В полиции Лос-Анджелеса дела плохи. В участках процветает коррупция, и мэр назначает комиссию, которая должна вывести грязных копов на чистую воду.

Качество: WEB-DL 720p
Формат: MKV

Видео: H.264, 4 774 kb/s, 1280x536
Аудио#1: AC3, 2 ch, 384 Кбит/с
скриншот  скриншот  скриншот  

Общее
Уникальный идентификатор : 197369794621365883984750863359668351113 (0x947C0A2D929EB2E489FD0A1B73237089)
Полное имя : F:\Dirty.2016.P.WEB-DL.72Op_KOSHARA.mkv
Формат : Matroska
Версия формата : Version 2
Размер файла : 3,29 Гбайт
Продолжительность : 1 ч. 31 м.
Режим общего битрейта : Переменный
Общий поток : 5160 Кбит/сек
Дата кодирования : UTC 2018-05-02 19:26:30
Программа кодирования : mkvmerge v8.3.0 ('Over the Horizon') 64bit
Библиотека кодирования : libebml v1.3.1 + libmatroska v1.4.2

Видео
Идентификатор : 1
Формат : AVC
Формат/Информация : Advanced Video Codec
Профиль формата : High@L4.1
Параметр CABAC формата : Да
Параметр RefFrames формата : 4 кадра
Идентификатор кодека : V_MPEG4/ISO/AVC
Продолжительность : 1 ч. 31 м.
Вид битрейта : Переменный
Битрейт : 4773 Кбит/сек
Максимальный битрейт : 5200 Кбит/сек
Ширина : 1280 пикселей
Высота : 536 пикселей
Соотношение сторон : 2,40:1
Режим частоты кадров : Постоянный
Частота кадров : 23,976 (24000/1001) кадра/сек
Стандарт вещания : Component
Цветовое пространство : YUV
Субдискретизация насыщенности : 4:2:0
Битовая глубина : 8 бит
Тип развёртки : Прогрессивная
Бит/(Пиксели*Кадры) : 0.284
Размер потока : 2,98 Гбайт (91%)
Default : Да
Forced : Нет
Цветовой диапазон : Limited
Основные цвета : BT.709
Характеристики трансфера : BT.709
Коэффициенты матрицы : BT.709

Аудио
Идентификатор : 2
Формат : AC-3
Формат/Информация : Audio Coding 3
Расширение режима : CM (complete main)
Параметр Endianness формата : Big
Идентификатор кодека : A_AC3
Продолжительность : 1 ч. 31 м.
Вид битрейта : Постоянный
Битрейт : 384 Кбит/сек
Каналы : 2 канала
Расположение каналов : Front: L R
Частота : 48,0 КГц
Частота кадров : 31,250 кадров/сек (1536 spf)
Метод сжатия : С потерями
Размер потока : 251 Мбайт (7%)
Default : Да
Forced : Нет

pb.wtf



Скачать Грязные копы через торрент https://a.radikal.ru/a29/1805/63/821172d70f70.jpg Скачать фильм Грязные копы через торрент бесплантно в хорошем качестве Описание: В полиции Лос-Анджелеса дела плохи. В участках процветает коррупция, и мэр назначает комиссию, которая должна вывести грязных ... 9.3 10 4
Торрент: Зарегистрирован [2018-05-04 15:29] · скачан: 66 раз
Статус: T временная
Размер: 3.29 GB
Как cкачать? Как скачать Грязные копы через торрент | qTorrent

% Раздел Тема Автор DL S | L
T Фильмы (мультфильмы) cо спонсором показа (Новинки AVI/MKV) [ 1.37 GB ] Грязные копы / Dirty [2016 WEB-DLRip] MVO ["Синема УС"] bober100 Скачать
2 | 0

28-11-2019 20:33  

Отключить всю рекламу на сайте

    Дорогой пользователь! Огромная просьба, поблагодарите релизера, оцените раздачу и оставьте свои комментарий, если Вы скачали Грязные копы через торрент бесплатно! Внесите свою лепту в развитие PiratBit!
    Комментировать посты могут только пользователи прошедшие не сложную регистрацию
    Показать сообщения:    

    Грязные копы через торрент
    Скачать бесплатно Грязные копы
    Грязные копы скачать торрент
    Грязные копы смотреть онлайн
    Cкачать фильм Грязные копы бесплатно
    Грязные копы скачать торрент в хорошем качестве
    Грязные копы смотреть онлайн бесплатно в хорошем качестве


    Вы не можете начинать темы
    Вы не можете отвечать на сообщения
    Вы не можете редактировать свои сообщения
    Вы не можете удалять свои сообщения
    Вы не можете голосовать в опросах
    Вы не можете прикреплять файлы к сообщениям
    Вы можете скачивать файлы