Ссылка на приватное зеркало всего за 1$. Внимание количество ограничено!!!

OK

1+1

iTunes

мы

OK

1

WEB-DLRip

Джокер

Пифагор

Ведьмак / The Witcher сериал

iTunes

ПШазам

ОК

Оно 2

iTunes

30
pack

Вам бонус

ВАЖНО

!!Акция!!

Alien_RageХит недели

RePack

Resident Evil 21

ИГРА 18+

pack

RePack

jed

RePack

fifa19

RePack

Assassins Creed: Odyssey

RePack

NEED FOR SPEED™ PAYBACK

4 сезон

9 сезон

Бесстыжие 9 сезон

Все сериалы

все сериалы на PB.wtf

RePack

FAR CRY 5
  

Вампирская глина / Chi o su nendo (Соити Умэдзава) [2017, Ужасы, WEB-DL 720p] MVO [КОЛОБОК] pb.wtf

Вампирская глина через торрент pb.wtf

Размер: 2.7 GB | Добавлен: 1 год 8 мес. назад | Торрент скачан:51 раз
Скачать  

04-05-2018 19:59 Вампирская глина Скачать торрент  

Вампирская глина / Chi o su nendoГод выпуска: 2017
Страна: Япония
Жанр: Ужасы
Продолжительность: 01:23:01
Перевод: Любительский (многоголосый) | КОЛОБОК
Субтитры: английские

Режиссер: Соити Умэдзава

rating

В ролях:

Эна Фудзита, Асука Куросава, Юю Макихара, Рё Синода, Момока Сугимото, Кёка Такэда, Кандзи Цуда

Описание:

Где-то в японской провинции рядом с художественной школой учительница находит пакет с замечательной глиной. Не пропадать же добру — из этой глины ученицы слепят скульптуры, а позже скульптуры съедят учениц.

Качество: WEB-DL 720p
Формат: MKV

Видео: H.264, 4 265 Кбит/с, 1280x720
Аудио#1: AC3, 2 ch, 384 Кбит/с
скриншот  скриншот  скриншот  

Общее
Уникальный идентификатор : 231707852326747277067663908448280860750 (0xAE514F2221F94A9B8A958FF54475584E)
Полное имя : F:\Vampire Clay.2017.Pk.WEB-DL.72Op.mkv
Формат : Matroska
Версия формата : Version 2
Размер файла : 2,70 Гбайт
Продолжительность : 1 ч. 23 м.
Режим общего битрейта : Переменный
Общий поток : 4651 Кбит/сек
Дата кодирования : UTC 2018-05-04 16:55:09
Программа кодирования : mkvmerge v8.3.0 ('Over the Horizon') 64bit
Библиотека кодирования : libebml v1.3.1 + libmatroska v1.4.2

Видео
Идентификатор : 1
Формат : AVC
Формат/Информация : Advanced Video Codec
Профиль формата : High@L4.1
Параметр CABAC формата : Да
Параметр RefFrames формата : 4 кадра
Идентификатор кодека : V_MPEG4/ISO/AVC
Продолжительность : 1 ч. 23 м.
Вид битрейта : Переменный
Битрейт : 4265 Кбит/сек
Максимальный битрейт : 5000 Кбит/сек
Ширина : 1280 пикселей
Высота : 720 пикселей
Соотношение сторон : 16:9
Режим частоты кадров : Постоянный
Частота кадров : 23,976 (24000/1001) кадра/сек
Стандарт вещания : Component
Цветовое пространство : YUV
Субдискретизация насыщенности : 4:2:0
Битовая глубина : 8 бит
Тип развёртки : Прогрессивная
Бит/(Пиксели*Кадры) : 0.189
Размер потока : 2,42 Гбайт (90%)
Default : Да
Forced : Нет
Цветовой диапазон : Limited
Основные цвета : BT.709
Характеристики трансфера : BT.709
Коэффициенты матрицы : BT.709

Аудио
Идентификатор : 2
Формат : AC-3
Формат/Информация : Audio Coding 3
Расширение режима : CM (complete main)
Параметр Endianness формата : Big
Идентификатор кодека : A_AC3
Продолжительность : 1 ч. 23 м.
Вид битрейта : Постоянный
Битрейт : 384 Кбит/сек
Каналы : 2 канала
Расположение каналов : Front: L R
Частота : 48,0 КГц
Частота кадров : 31,250 кадров/сек (1536 spf)
Метод сжатия : С потерями
Размер потока : 228 Мбайт (8%)
Default : Да
Forced : Нет

pb.wtf



Скачать Вампирская глина через торрент https://b.radikal.ru/b01/1805/d2/d3fc226532d1.jpg Скачать фильм Вампирская глина через торрент бесплантно в хорошем качестве Описание: Где-то в японской провинции рядом с художественной школой учительница находит пакет с замечательной глиной. Не пропадать же добру ... 7.8 10 4
Торрент: Зарегистрирован [2018-05-04 19:59] · скачан: 51 раз
Статус: T временная
Размер: 2.7 GB
Как cкачать? Как скачать Вампирская глина через торрент | qTorrent

% Раздел Тема Автор DL S | L
T Фильмы (мультфильмы) cо спонсором показа (Новинки AVI/MKV) [ 1.37 GB ] Вампирская глина / Chi o su nendo [2017 WEB-DLRip] MVO [КОЛОБОК] bober100 Скачать
1 | 0

28-11-2019 20:33  

Отключить всю рекламу на сайте

    Дорогой пользователь! Огромная просьба, поблагодарите релизера, оцените раздачу и оставьте свои комментарий, если Вы скачали Вампирская глина через торрент бесплатно! Внесите свою лепту в развитие PiratBit!
    Комментировать посты могут только пользователи прошедшие не сложную регистрацию
    Показать сообщения:    

    Вампирская глина через торрент
    Скачать бесплатно Вампирская глина
    Вампирская глина скачать торрент
    Вампирская глина смотреть онлайн
    Cкачать фильм Вампирская глина бесплатно
    Вампирская глина скачать торрент в хорошем качестве
    Вампирская глина смотреть онлайн бесплатно в хорошем качестве


    Вы не можете начинать темы
    Вы не можете отвечать на сообщения
    Вы не можете редактировать свои сообщения
    Вы не можете удалять свои сообщения
    Вы не можете голосовать в опросах
    Вы не можете прикреплять файлы к сообщениям
    Вы можете скачивать файлы