Ссылка на приватное зеркало нашего сайта всего за 1$. Внимание количество ограничено!!!

2 сезон

iTunes

1 сезон

1

2 сезон

2 сезон

iTunes

1 сезон

RePack

30

Ultimate

ВАЖНО

ИГРА 18+

pack

RePack

MK11
pack

Забери бонус

RePack

jed

!!Акция!!

Alien_Rage

RePack

fifa19

RePack

Assassins Creed: Odyssey

RePack

NEED FOR SPEED™ PAYBACK

4 сезон

9 сезон

Бесстыжие 9 сезон

Все сериалы

все сериалы на PB.wtf

RePack

FAR CRY 5
  

Титан / The Titan (Леннарт Рафф) [2018, фантастика, WEB-DL 1080p] MVO [NewStudio] +DUB [iTunes] [AMZN Version] pb.wtf

Титан через торрент pb.wtf

Размер: 4.02 GB | Добавлен: 2 года 6 мес. назад | Торрент скачан:136 раз
Скачать  

05-05-2018 02:02 Титан Скачать торрент  

Титан / The TitanГод выпуска: 2018
Страна: Великобритания, США, Испания
Жанр: фантастика
Продолжительность: 01:37:22
Перевод:

#1: Дублированный | iTunes
#2: Профессиональный многоголосый | NewStudio

Субтитры: Русские (full), английские

Режиссер: Леннарт Рафф

rating

В ролях:

Сэм Уортингтон, Тейлор Шиллинг, Том Уилкинсон, Агнесс Дейн, Натали Эммануэль, Кори Джонсон, Александр Йованович, Аарон Хеффернан, Натали Поса, Стивен Кри

Описание:

Американский военный Рик принимает участие в грандиозной космической программе. Лучшие умы планеты пытаются создать сверхлюдей, которые после гибели Земли обеспечат продолжение существования человечества на планете Титан. Однако эксперимент по скрещиванию генов Homo sapiens с инопланетным существом приводит к совершенно непредсказуемым последствиям.

Качество: WEB-DL 1080p | AMZN Version
Формат: MKV

Видео: MPEG-4 AVC, MPEG-4 AVC, 1920x800, 4373 Kbit/s, 23.976 fps
Аудио#1: 48 kHz, AC3, 5.1, 384 Kbps | iTunes | RUS |
Аудио#2: 48 kHz, AC3, 5.1, 384 Kbps | NewStudio | RUS |
Аудио#3: 48 kHz, AC3, 5.1, 384 Kbps | Оригинал | ENG |
скриншот  
скриншот   скриншот   скриншот   скриншот   скриншот  

General
Unique ID : 213779571163408100894627690526564472566 (0xA0D472A0695F7BEC9EAE349DE678D6F6)
Complete name : C:Video111The.Titan.2018.D.AMZN.WEB-DL.1080p.ExKinoRay.mkv
Format : Matroska
Format version : Version 4 / Version 2
File size : 3.76 GiB
Duration : 1 h 37 min
Overall bit rate mode : Variable
Overall bit rate : 5 526 kb/s
Movie name : The Titan 2018 AMZN from ExKinoRay
Encoded date : UTC 2018-05-04 02:41:06
Writing application : mkvmerge v7.3.0 ('Nouages') 64bit built on Oct 22 2014 18:53:34
Writing library : libebml v1.3.0 + libmatroska v1.4.1

Video
ID : 1
Format : AVC
Format/Info : Advanced Video Codec
Format profile : High@L4
Format settings : CABAC / 4 Ref Frames
Format settings, CABAC : Yes
Format settings, ReFrames : 4 frames
Codec ID : V_MPEG4/ISO/AVC
Duration : 1 h 37 min
Bit rate mode : Variable
Bit rate : 4 373 kb/s
Maximum bit rate : 15.0 Mb/s
Width : 1 920 pixels
Height : 800 pixels
Display aspect ratio : 2.40:1
Frame rate mode : Constant
Frame rate : 23.976 (24000/1001) FPS
Color space : YUV
Chroma subsampling : 4:2:0
Bit depth : 8 bits
Scan type : Progressive
Bits/(Pixel*Frame) : 0.119
Stream size : 2.97 GiB (79%)
Language : English
Default : Yes
Forced : No
Color range : Limited
Color primaries : BT.709
Transfer characteristics : BT.709
Matrix coefficients : BT.709

Audio #1
ID : 2
Format : AC-3
Format/Info : Audio Coding 3
Codec ID : A_AC3
Duration : 1 h 37 min
Bit rate mode : Constant
Bit rate : 384 kb/s
Channel(s) : 6 channels
Channel positions : Front: L C R, Side: L R, LFE
Sampling rate : 48.0 kHz
Frame rate : 31.250 FPS (1536 SPF)
Bit depth : 16 bits
Compression mode : Lossy
Stream size : 267 MiB (7%)
Title : iTunes
Language : Russian
Service kind : Complete Main
Default : Yes
Forced : Yes

Audio #2
ID : 3
Format : AC-3
Format/Info : Audio Coding 3
Codec ID : A_AC3
Duration : 1 h 37 min
Bit rate mode : Constant
Bit rate : 384 kb/s
Channel(s) : 6 channels
Channel positions : Front: L C R, Side: L R, LFE
Sampling rate : 48.0 kHz
Frame rate : 31.250 FPS (1536 SPF)
Bit depth : 16 bits
Compression mode : Lossy
Stream size : 267 MiB (7%)
Title : MVO-NS
Language : Russian
Service kind : Complete Main
Default : No
Forced : No

Audio #3
ID : 4
Format : AC-3
Format/Info : Audio Coding 3
Codec ID : A_AC3
Duration : 1 h 37 min
Bit rate mode : Constant
Bit rate : 384 kb/s
Channel(s) : 6 channels
Channel positions : Front: L C R, Side: L R, LFE
Sampling rate : 48.0 kHz
Frame rate : 31.250 FPS (1536 SPF)
Bit depth : 16 bits
Compression mode : Lossy
Stream size : 267 MiB (7%)
Title : Original
Language : English
Service kind : Complete Main
Default : No
Forced : No

Text #1
ID : 5
Format : UTF-8
Codec ID : S_TEXT/UTF8
Codec ID/Info : UTF-8 Plain Text
Duration : 47 min 56 s
Bit rate : 0 b/s
Count of elements : 6
Stream size : 299 Bytes (0%)
Title : Forced
Language : Russian
Default : Yes
Forced : Yes

Text #2
ID : 6
Format : UTF-8
Codec ID : S_TEXT/UTF8
Codec ID/Info : UTF-8 Plain Text
Duration : 1 h 30 min
Bit rate : 53 b/s
Count of elements : 631
Stream size : 35.8 KiB (0%)
Title : Full
Language : Russian
Default : No
Forced : No

Text #3
ID : 7
Format : UTF-8
Codec ID : S_TEXT/UTF8
Codec ID/Info : UTF-8 Plain Text
Duration : 1 h 27 min
Bit rate : 30 b/s
Count of elements : 718
Stream size : 19.5 KiB (0%)
Title : Full
Language : English
Default : No
Forced : No

Text #4
ID : 8
Format : UTF-8
Codec ID : S_TEXT/UTF8
Codec ID/Info : UTF-8 Plain Text
Duration : 1 h 35 min
Bit rate : 36 b/s
Count of elements : 980
Stream size : 25.9 KiB (0%)
Title : SDH
Language : English
Default : No
Forced : No

Menu
00:00:00.000 : en:1
00:09:15.000 : en:2
00:18:58.000 : en:3
00:31:49.000 : en:4
00:38:14.000 : en:5
00:48:11.000 : en:6
00:58:05.000 : en:7
01:08:43.000 : en:8
01:16:24.000 : en:9
01:26:19.000 : en:10
01:41:35.000 : en:11
01:49:43.000 : en:12
02:08:22.000 : en:13

pb.wtf



Скачать Титан через торрент http://pic1.kartinco.top/images/11/zuy93.jpg Скачать фильм Титан через торрент бесплантно в хорошем качестве Описание: Американский военный Рик принимает участие в грандиозной космической программе. Лучшие умы планеты пытаются создать сверхлюдей, ... 6.4 10 5
Торрент: Зарегистрирован [2018-05-05 02:02] · скачан: 136 раз
Статус: √ проверено
Размер: 4.02 GB
Как cкачать? Как скачать Титан через торрент | qTorrent

% Раздел Тема Автор DL S | L
T Иностранные мультфильмы [ 1.63 GB ] Юные титаны вперед! / Teen Titans Go! To the Movies [2018 мультфильм BDRip-AVC] MVO [HDRezka Studio] bober100 Скачать
1 | 0
Фильмы (Blu-ray, BD-Remux, HDDVD) [ 25.84 GB ] Титан / The Titan [2018 BD Remux 1080p] MVO [NewStudio] + bober100 Скачать
1 | 0
Фильмы [HD 720p, 1080p] (Хороший звук DUB, MVO) [ 5.75 GB ] Битва Титанов / Clash of the Titans [2010 BDRip 1080p HEVC ] Мичман37 Скачать
1 | 0
Фильмы [HD 720p, 1080p] (Хороший звук DUB, MVO) [ 5.04 GB ] Гнев Титанов / Wrath of the Titans [2012 BDRip 1080p HEVC ] Мичман37 Скачать
1 | 0
Фильмы 2018 [DVDrip, WEB-DLRip, HDrip] (DUB, MVO) [ 1.42 GB ] Титан / The Titan [2018 BDRip] - Twi7ter Скачать
2 | 0
Фильмы (WEB-DL 720p, 1080p) [ 3.11 GB ] Титан / The Titan [2018 WEB-DL 1080p] bober100 Скачать
1 | 0
Фильмы [HD 720p, 1080p] (Хороший звук DUB, MVO) [ 5.03 GB ] Титан / The Titan [2018 BDRip 720p] MVO [NewStudio] + bober100 Скачать
1 | 0

28-11-2019 20:33  

Отключить всю рекламу на сайте

    Дорогой пользователь! Огромная просьба, поблагодарите релизера, оцените раздачу и оставьте свои комментарий, если Вы скачали Титан через торрент бесплатно! Внесите свою лепту в развитие PiratBit!
    Комментировать посты могут только пользователи прошедшие не сложную регистрацию
    Показать сообщения:    

    Титан через торрент
    Скачать бесплатно Титан
    Титан скачать торрент
    Титан смотреть онлайн
    Cкачать фильм Титан бесплатно
    Титан скачать торрент в хорошем качестве
    Титан смотреть онлайн бесплатно в хорошем качестве


    Вы не можете начинать темы
    Вы не можете отвечать на сообщения
    Вы не можете редактировать свои сообщения
    Вы не можете удалять свои сообщения
    Вы не можете голосовать в опросах
    Вы не можете прикреплять файлы к сообщениям
    Вы можете скачивать файлы