Ссылка на приватное зеркало нашего сайта всего за 1$. Внимание количество ограничено!!!

2 сезон

iTunes

1 сезон

1

2 сезон

2 сезон

iTunes

1 сезон

RePack

30

Ultimate

ВАЖНО

ИГРА 18+

pack

RePack

MK11
pack

Забери бонус

RePack

jed

!!Акция!!

Alien_Rage

RePack

fifa19

RePack

Assassins Creed: Odyssey

RePack

NEED FOR SPEED™ PAYBACK

4 сезон

9 сезон

Бесстыжие 9 сезон

Все сериалы

все сериалы на PB.wtf

RePack

FAR CRY 5
  

Ночные игры / Game Night (Джон Фрэнсис Дейли, Джонатан М. Голдштейн) [2018, триллер, комедия, криминал, детектив, WEB-DL 1080p] DUB [iTunes] [AMZN Version] pb.wtf

Ночные игры через торрент pb.wtf

Размер: 6.06 GB | Добавлен: 2 года 6 мес. назад | Торрент скачан:1921 раз
Скачать  

05-05-2018 02:33 Ночные игры Скачать торрент  

Ночные игры / Game NightГод выпуска: 2018
Страна: США
Жанр: триллер, комедия, криминал, детектив
Продолжительность: 01:40:03
Перевод: Дублированный | iTunes
Субтитры: Русские (forced, full), английские

Режиссер: Джон Фрэнсис Дейли, Джонатан М. Голдштейн

rating

В ролях:

Джейсон Бейтман, Рэйчел МакАдамс, Кайл Чандлер, Шэрон Хорган, Билли Магнуссен, Ламорн Моррис, Кайли Банбери, Джесси Племонс, Майкл С. Холл, Дэнни Хьюстон

Описание:

История Макса и Энни, которые вместе с другими парами каждую неделю устраивают так называемые «ночные игры». И вот однажды харизматичный брат Макса Брукс организовывает вечер по разгадыванию «убийственного» квеста с «ряжеными» головорезами и агентами ФБР. Получается, похищение Брукса в тот вечер - это розыгрыш... или нет?

В итоге, по мере того, как шестеро мега-азартных игроков пытаются решить заготовленные головоломки и выиграть, они начинают осознавать, что и «квест», и Брукс - совсем не такие, как кажутся. В течение всей этой суматошной ночи друзья не раз прыгают выше головы, пытаясь выпутаться из очередной передряги. В игре нет правил, за нее не начисляются очки, а игроки понятия не имеют, кому противостоят. Эта ночь может стать самой зажигательной в их жизни... или последней.

Качество: WEB-DL 1080p | AMZN Version
Формат: MKV

Видео: MPEG-4 AVC, 1920x800, 7643 Kbit/s, 23.976 fps
Аудио#1: 48 kHz, AC3, 5.1, 384 Kbps | iTunes | RUS |
Аудио#2: 48 kHz, AC3, 5.1, 640 Kbps | Оригинал | ENG |
скриншот   скриншот   скриншот   скриншот   скриншот  

General
Unique ID : 159984213410897054739114297289294677636 (0x785BD6B699282179EFD13C948B9F0684)
Complete name : E:VideoGame.Night.2018.AMZN.WEB-DL.1080p.ExKinoRay.mkv
Format : Matroska
Format version : Version 4 / Version 2
File size : 6.06 GiB
Duration : 1 h 40 min
Overall bit rate mode : Variable
Overall bit rate : 8 669 kb/s
Movie name : Game Night 2018 from ExKinoRay
Encoded date : UTC 2018-05-04 19:54:39
Writing application : mkvmerge v22.0.0 ('At The End Of The World') 64-bit
Writing library : libebml v1.3.5 + libmatroska v1.4.8

Video
ID : 1
Format : AVC
Format/Info : Advanced Video Codec
Format profile : High@L4
Format settings : CABAC / 4 Ref Frames
Format settings, CABAC : Yes
Format settings, ReFrames : 4 frames
Codec ID : V_MPEG4/ISO/AVC
Duration : 1 h 40 min
Bit rate mode : Variable
Bit rate : 7 643 kb/s
Maximum bit rate : 15.0 Mb/s
Width : 1 920 pixels
Height : 800 pixels
Display aspect ratio : 2.40:1
Frame rate mode : Constant
Frame rate : 23.976 (24000/1001) FPS
Color space : YUV
Chroma subsampling : 4:2:0
Bit depth : 8 bits
Scan type : Progressive
Bits/(Pixel*Frame) : 0.208
Stream size : 5.34 GiB (88%)
Language : English
Default : Yes
Forced : No
Color range : Limited
Color primaries : BT.709
Transfer characteristics : BT.709
Matrix coefficients : BT.709

Audio #1
ID : 2
Format : AC-3
Format/Info : Audio Coding 3
Codec ID : A_AC3
Duration : 1 h 40 min
Bit rate mode : Constant
Bit rate : 384 kb/s
Channel(s) : 6 channels
Channel positions : Front: L C R, Side: L R, LFE
Sampling rate : 48.0 kHz
Frame rate : 31.250 FPS (1536 SPF)
Bit depth : 16 bits
Compression mode : Lossy
Stream size : 275 MiB (4%)
Title : iTunes
Language : Russian
Service kind : Complete Main
Default : Yes
Forced : Yes

Audio #2
ID : 3
Format : AC-3
Format/Info : Audio Coding 3
Codec ID : A_AC3
Duration : 1 h 40 min
Bit rate mode : Constant
Bit rate : 640 kb/s
Channel(s) : 6 channels
Channel positions : Front: L C R, Side: L R, LFE
Sampling rate : 48.0 kHz
Frame rate : 31.250 FPS (1536 SPF)
Bit depth : 16 bits
Compression mode : Lossy
Stream size : 458 MiB (7%)
Title : Original
Language : English
Service kind : Complete Main
Default : No
Forced : No

Text #1
ID : 4
Format : UTF-8
Codec ID : S_TEXT/UTF8
Codec ID/Info : UTF-8 Plain Text
Duration : 1 h 39 min
Bit rate : 4 b/s
Count of elements : 61
Stream size : 3.31 KiB (0%)
Title : Forced
Language : Russian
Default : Yes
Forced : Yes

Text #2
ID : 5
Format : UTF-8
Codec ID : S_TEXT/UTF8
Codec ID/Info : UTF-8 Plain Text
Duration : 1 h 39 min
Bit rate : 135 b/s
Count of elements : 2086
Stream size : 98.7 KiB (0%)
Title : Full
Language : Russian
Default : No
Forced : No

Text #3
ID : 6
Format : UTF-8
Codec ID : S_TEXT/UTF8
Codec ID/Info : UTF-8 Plain Text
Duration : 1 h 39 min
Bit rate : 92 b/s
Count of elements : 2245
Stream size : 67.3 KiB (0%)
Title : Full
Language : English
Default : No
Forced : No

Menu
00:00:00.000 : en:1
00:10:34.000 : en:2
00:18:36.000 : en:3
00:32:24.000 : en:4
00:42:39.000 : en:5
00:52:26.000 : en:6
01:02:00.000 : en:7
01:11:50.000 : en:8
01:22:36.000 : en:9
01:32:53.000 : en:10

pb.wtf



Скачать Ночные игры через торрент http://img12.lostpic.net/2018/02/26/c4ebfc995c8e3eb1ac7560622158f065.jpg Скачать фильм Ночные игры через торрент бесплантно в хорошем качестве Описание: История Макса и Энни, которые вместе с другими парами каждую неделю устраивают так называемые «ночные игры». И вот однажды ... 9.7 10 33
Info! Золотая раздача, скачанное не засчитывается.
Торрент: Зарегистрирован [2018-05-05 02:33] · скачан: 1 921 раз
Статус: √ проверено
Размер: 6.06 GB
Как cкачать? Как скачать Ночные игры через торрент | qTorrent

% Раздел Тема Автор DL S | L
Фильмы с авторской озвучкой [ 1.46 GB ] Ночные игры / Game Night [2018 BDRip] AVO [Есарев] - ExKinoRay Enigma2010 Скачать
2 | 0
Фильмы 2018 [DVDrip, WEB-DLRip, HDrip] (DUB, MVO) [ 2.06 GB ] Ночные игры / Game Night [2018 BDRip] - [] - ExKinoRay Enigma2010 Скачать
3 | 0
Фильмы 2018 [DVDrip, WEB-DLRip, HDrip] (DUB, MVO) [ 709 MB ] Ночные игры / Game Night [2018 HDRip "BD EUR"] coc900 Скачать
2 | 0
Фильмы [HD 720p, 1080p] (Хороший звук DUB, MVO) [ 6.37 GB ] Ночные игры / Game Night [2018 BDRip 720p] DUB [] bober100 Скачать
1 | 0
Фильмы 2018 [DVDrip, WEB-DLRip, HDrip] (DUB, MVO) [ 2.03 GB ] Ночные игры / Game Night [2018 BDRip-AVC] DUB [] bober100 Скачать
1 | 0
Фильмы (Blu-ray, BD-Remux, HDDVD) [ 23.83 GB ] Ночные игры / Game Night [2018 BD Remux 1080p] DUB [] bober100 Скачать
1 | 0
Фильмы [HD 720p, 1080p] (Хороший звук DUB, MVO) [ 11.63 GB ] Ночные игры / Game Night [2018 BDRip 1080p] DUB [] bober100 Скачать
1 | 0

28-11-2019 20:33  

Отключить всю рекламу на сайте

05-05-2018 04:48 Ночные игры Скачать торрент  

видеокал?pb.wtf



05-05-2018 06:22 Ночные игры Скачать торрент  

кто нибудь в курсе что это за амазон версия, уже глаза начала мазолить ?pb.wtf



05-05-2018 07:45 Ночные игры Скачать торрент  

GuruBrain, AMZN Version - фильм куплен в Amazon.
По содержанию фильм тот же самый, отличие от iTunes в технических характеристиках раздаваемого файла.pb.wtf



05-05-2018 08:04 Ночные игры Скачать торрент  

на 4 скрине низкобюджетный Мэт Деймон из Black Mirrorpb.wtf



05-05-2018 08:26 Ночные игры Скачать торрент  

-Lexx- писал(а):

GuruBrain, AMZN Version - фильм куплен в Amazon.
По содержанию фильм тот же самый, отличие от iTunes в технических характеристиках раздаваемого файла.

А почему он весит больше в 2 раза, чем не от амазон?pb.wtf



05-05-2018 08:41 Ночные игры Скачать торрент  

Vad_IM, вынужден цитировать сам себя:

-Lexx- писал(а):

отличие от iTunes в технических характеристиках раздаваемого файла.

Сравните технические характеристики AMZN и iTunes, в AMZN версии больше битрейт видео и оригинальной аудиодорожки.
Чем больше битрейт, тем больше вес раздаваемого файла.pb.wtf



05-05-2018 12:13 Ночные игры Скачать торрент  

-Lexx-, спасибо, понятноpb.wtf



05-05-2018 18:51 Ночные игры Скачать торрент  

фильм на разок,посмотрел и забыл навсегда,были смешные моменты,но в целом неочень на 3 из 5pb.wtf



05-05-2018 21:08 Ночные игры Скачать торрент  

D1MON88 писал(а):

на 4 скрине низкобюджетный Мэт Деймон из Black Mirror

орнул))
pb.wtf



    Дорогой пользователь! Огромная просьба, поблагодарите релизера, оцените раздачу и оставьте свои комментарий, если Вы скачали Ночные игры через торрент бесплатно! Внесите свою лепту в развитие PiratBit!
    Комментировать посты могут только пользователи прошедшие не сложную регистрацию
    Показать сообщения:    

    Ночные игры через торрент
    Скачать бесплатно Ночные игры
    Ночные игры скачать торрент
    Ночные игры смотреть онлайн
    Cкачать фильм Ночные игры бесплатно
    Ночные игры скачать торрент в хорошем качестве
    Ночные игры смотреть онлайн бесплатно в хорошем качестве


    Вы не можете начинать темы
    Вы не можете отвечать на сообщения
    Вы не можете редактировать свои сообщения
    Вы не можете удалять свои сообщения
    Вы не можете голосовать в опросах
    Вы не можете прикреплять файлы к сообщениям
    Вы можете скачивать файлы