Ссылка на приватное зеркало нашего сайта всего за 1$. Внимание количество ограничено!!!

2 сезон

iTunes

1 сезон

1

2 сезон

2 сезон

iTunes

1 сезон

RePack

30

Новинка

ВАЖНО

ИГРА 18+

pack

RePack

MK11
pack

Забери бонус

RePack

jed

!!Акция!!

Alien_Rage

RePack

fifa19

RePack

Assassins Creed: Odyssey

RePack

NEED FOR SPEED™ PAYBACK

4 сезон

9 сезон

Бесстыжие 9 сезон

Все сериалы

все сериалы на PB.wtf

RePack

FAR CRY 5
  

Дождь / The Rain / Сезон: 1 / Серии: 1-8 из 8 (Кеннет Кайнц, Наташа Артю) [2018, Триллер, WEBRip 720p] DVO [SunshineStudio] pb.wtf

Дождь через торрент pb.wtf

Размер: 5.46 GB | Добавлен: 2 года 7 мес. назад | Торрент скачан:165 раз
Скачать  

05-05-2018 07:04 Дождь Скачать торрент  

Дождь / The RainГод выпуска: 2018
Страна: Дания, США
Жанр: Триллер
Продолжительность: ~ 00:45:00
Перевод: Любительский (двухголосый) |
Субтитры: отсутствуют

Режиссер: Кеннет Кайнц, Наташа Артю

rating

В ролях:

Ибен Яйль, Альба Аугуст, Лукас Тоннесен, Миккель Боэ Фёльсгор, Ларс Симонсен, Йоханнес Кунке

Описание:

Шесть лет назад смертоносный вирус стёр с лица Земли почти всё человечество. В специальном бункере скрываются брат и сестра, но необходимость в скором времени заставляет их покинуть уютное убежище и выйти на поверхность. Они отправляются на поиски пропавшего без вести отца, который оставил после себя лишь записную книжку, где описаны вирус и опасности нового мира.
Посреди останков былой роскоши они встречают других выживших, надеющихся найти очаги новой цивилизации. Но вокруг их ждёт только смерть. Особенно если не следовать главному правилу постапокалипсиса: никогда и ни при каких обстоятельствах не попадать под дождь.

Качество: WEBRip 720p
Формат: MKV

Видео: MPEG-4 AVC, ~ 2000 Кбит/с, 1280х640
Аудио: AC3, 2 ch, 192 Кбит/с
скриншот   скриншот   скриншот   скриншот  

Общее
Уникальный идентификатор : 199634760872099358259900936875080506900 (0x963041A2CD64593887D71AC5B5255E14)
Полное имя : E:\The.Rain.S01.720p.SunshineStudio\The.Rain.S01E01.720p.SunshineStudio.mkv
Формат : Matroska
Версия формата : Version 4 / Version 2
Размер файла : 773 Мбайт
Продолжительность : 47 м. 26 с.
Общий поток : 2278 Кбит/сек
Дата кодирования : UTC 2018-05-04 15:39:35
Программа кодирования : mkvmerge v8.3.0 ('Over the Horizon') 64bit
Библиотека кодирования : libebml v1.3.1 + libmatroska v1.4.2

Видео
Идентификатор : 1
Формат : AVC
Формат/Информация : Advanced Video Codec
Профиль формата : High@L3.1
Настройки формата : CABAC / 4 Ref Frames
Параметр CABAC формата : Да
Параметр RefFrames формата : 4 кадра
Идентификатор кодека : V_MPEG4/ISO/AVC
Продолжительность : 47 м. 26 с.
Битрейт : 2084 Кбит/сек
Ширина : 1280 пикселей
Высота : 640 пикселей
Соотношение сторон : 2,000
Режим частоты кадров : Постоянный
Частота кадров : 25,000 кадров/сек
Цветовое пространство : YUV
Субдискретизация насыщенности : 4:2:0
Битовая глубина : 8 бит
Тип развёртки : Прогрессивная
Бит/(Пиксели*Кадры) : 0.102
Размер потока : 707 Мбайт (91%)
Библиотека кодирования : x264 core 146 r2538 121396c
Настройки программы : cabac=1 / ref=1 / deblock=1:0:0 / analyse=0x3:0x113 / me=hex / subme=2 / psy=1 / psy_rd=1.00:0.00 / mixed_ref=0 / me_range=16 / chroma_me=1 / trellis=0 / 8x8dct=1 / cqm=0 / deadzone=21,11 / fast_pskip=1 / chroma_qp_offset=0 / threads=18 / lookahead_threads=5 / sliced_threads=0 / nr=0 / decimate=1 / interlaced=0 / bluray_compat=0 / constrained_intra=0 / bframes=3 / b_pyramid=2 / b_adapt=1 / b_bias=0 / direct=1 / weightb=1 / open_gop=0 / weightp=1 / keyint=250 / keyint_min=25 / scenecut=40 / intra_refresh=0 / rc_lookahead=10 / rc=crf / mbtree=1 / crf=18.0 / qcomp=0.60 / qpmin=0 / qpmax=69 / qpstep=4 / ip_ratio=1.40 / aq=1:1.00
Default : Да
Forced : Нет

Аудио
Идентификатор : 2
Формат : AC-3
Формат/Информация : Audio Coding 3
Идентификатор кодека : A_AC3
Продолжительность : 47 м. 26 с.
Вид битрейта : Постоянный
Битрейт : 192 Кбит/сек
Каналы : 2 канала
Расположение каналов : Front: L R
Частота : 48,0 КГц
Частота кадров : 31,250 кадров/сек (1536 SPF)
Битовая глубина : 16 бит
Метод сжатия : С потерями
Размер потока : 65,2 Мбайт (8%)
ServiceKind/String : Complete Main
Default : Да
Forced : Нет

pb.wtf



Скачать Дождь через торрент http://i104.fastpic.ru/big/2018/0504/76/ff2778f1e9c8f98b61045cb6e5775c76.jpg Скачать фильм Дождь через торрент бесплантно в хорошем качестве Описание: Шесть лет назад смертоносный вирус стёр с лица Земли почти всё человечество. В специальном бункере скрываются брат и сестра, но ... 10 10 6
Торрент: Зарегистрирован [2018-05-05 07:04] · скачан: 165 раз
Статус: √ проверено
Размер: 5.46 GB
Как cкачать? Как скачать Дождь через торрент | qTorrent

% Раздел Тема Автор DL S | L
Зарубежные сериалы [ 3.89 GB ] Дождь / The Rain / Сезон: 1 / Серии: 1-8 из 8 [2018 WEB-DLRip] MVO [Good People] bober100 Скачать
1 | 0
Зарубежные сериалы [ 13.05 GB ] Дождь / The Rain / Сезон: 1 / Серии: 1-8 из 8 [2018 WEBRip 1080p] MVO [TVShows] bober100 Скачать
2 | 0
Зарубежные сериалы [ 5.43 GB ] Дождь / The Rain / Сезон: 1 / Серии: 1-8 из 8 [2018 WEBRip] MVO [TVShows] bober100 Скачать
1 | 0
Зарубежные сериалы [ 4.18 GB ] Дождь / The Rain / Сезон: 1 / Серии: 1-8 из 8 [2018 WEB-DLRip] DVO [Кубик в Кубе] bober100 Скачать
1 | 0
Зарубежные сериалы [ 13.04 GB ] Дождь / The Rain / Сезон: 1 / Серии: 1-8 из 8 [2018 WEB-DL 1080p] [MVO] killermax2013 Скачать
1 | 0
Зарубежные сериалы [ 6.37 GB ] Дождь / The Rain / Сезон: 1 / Серии: 1-8 из 8 [2018 WEBRip] MVO [Jaskier] bober100 Скачать
1 | 0
Зарубежные сериалы [ 3.78 GB ] Дождь / The Rain / Сезон: 1 / Серии: 1-8 из 8 [2018 WEBRip] MVO [Jaskier] bober100 Скачать
1 | 0


Последний раз редактировалось: bober100 (2018-05-05 11:58), всего редактировалось 1 раз

28-11-2019 20:33  

Отключить всю рекламу на сайте

05-05-2018 07:21 Дождь Скачать торрент  

Интересный сериал! Спасибо за то, что поделились!)pb.wtf



05-05-2018 13:55 Дождь Скачать торрент  

надо обозначить что сериал производства netflix, а то зритель подумает что это очередное проходное г-но))pb.wtf



22-05-2018 09:48 Дождь Скачать торрент  

Очень даже!!!!!!!!!!!! Нетфликс Рулит! Молодцы!pb.wtf



22-05-2018 11:04 Дождь Скачать торрент  

Раздающему за труды спасибо.Как по мне-социальная драма для пионеров.Гораздо ближе к нормальной фантастике "Пространство" или "Переправа"pb.wtf



    Дорогой пользователь! Огромная просьба, поблагодарите релизера, оцените раздачу и оставьте свои комментарий, если Вы скачали Дождь через торрент бесплатно! Внесите свою лепту в развитие PiratBit!
    Комментировать посты могут только пользователи прошедшие не сложную регистрацию
    Показать сообщения:    

    Дождь через торрент
    Скачать бесплатно Дождь
    Дождь скачать торрент
    Дождь смотреть онлайн
    Cкачать фильм Дождь бесплатно
    Дождь скачать торрент в хорошем качестве
    Дождь смотреть онлайн бесплатно в хорошем качестве


    Вы не можете начинать темы
    Вы не можете отвечать на сообщения
    Вы не можете редактировать свои сообщения
    Вы не можете удалять свои сообщения
    Вы не можете голосовать в опросах
    Вы не можете прикреплять файлы к сообщениям
    Вы можете скачивать файлы