Ссылка на приватное зеркало всего за 1$. Внимание количество ограничено!!!

OK

1+1

iTunes

мы

OK

1

WEB-DLRip

Джокер

Пифагор

Ведьмак / The Witcher сериал

iTunes

ПШазам

ОК

Оно 2

iTunes

30
pack

Вам бонус

ВАЖНО

!!Акция!!

Alien_RageХит недели

RePack

Resident Evil 21

ИГРА 18+

pack

RePack

jed

RePack

fifa19

RePack

Assassins Creed: Odyssey

RePack

NEED FOR SPEED™ PAYBACK

4 сезон

9 сезон

Бесстыжие 9 сезон

Все сериалы

все сериалы на PB.wtf

RePack

FAR CRY 5
  

Черный Коп / Black Cop (Кори Боулз) [2017, Драма, WEB-DL 720p] MVO ["Синема УС"] pb.wtf

Черный Коп через торрент pb.wtf

Размер: 3.13 GB | Добавлен: 1 год 8 мес. назад | Торрент скачан:42 раза
Скачать  

05-05-2018 07:18 Черный Коп Скачать торрент  

Черный Коп / Black CopГод выпуска: 2017
Страна: Канада
Жанр: Драма
Продолжительность: 01:33:11
Перевод: Любительский (многоголосый) | "Синема УС"
Субтитры: отсутствуют

Режиссер: Кори Боулз

rating

В ролях:

Ронни Роу, Софи Уолкер, Себастьян Лабелл, Саймон Пол Мутуймана, Кристиан Мюррэй, Эмбир Данн, Тейлор Олсон, Джефф Швагер, Мэттью МакИнтайр

Описание:

Темнокожий полицейский идет на крайности, выплескивая свой гнев и агрессию на народ, который он поклялся защищать.

Качество: WEB-DL 720p
Формат: MKV

Видео: h.264, 4 419 kb/s, 1280x716
Аудио#1: Русский, (AC3, 2 ch, 384 Кбит/с)
скриншот  скриншот  скриншот  

Общее
Уникальный идентификатор : 187779395723198701224787328340210447197 (0x8D44FF017910E30AB7A2D755C977735D)
Полное имя : F:\Black.Cop.2017.P.WEB-DL.72Op_KOSHARA.mkv
Формат : Matroska
Версия формата : Version 2
Размер файла : 3,13 Гбайт
Продолжительность : 1 ч. 33 м.
Режим общего битрейта : Переменный
Общий поток : 4805 Кбит/сек
Дата кодирования : UTC 2018-05-04 01:57:28
Программа кодирования : mkvmerge v8.3.0 ('Over the Horizon') 64bit
Библиотека кодирования : libebml v1.3.1 + libmatroska v1.4.2

Видео
Идентификатор : 1
Формат : AVC
Формат/Информация : Advanced Video Codec
Профиль формата : High@L4.1
Параметр CABAC формата : Да
Параметр RefFrames формата : 4 кадра
Идентификатор кодека : V_MPEG4/ISO/AVC
Продолжительность : 1 ч. 33 м.
Вид битрейта : Переменный
Битрейт : 4419 Кбит/сек
Максимальный битрейт : 5200 Кбит/сек
Ширина : 1280 пикселей
Высота : 716 пикселей
Соотношение сторон : 16:9
Режим частоты кадров : Постоянный
Частота кадров : 23,976 (24000/1001) кадра/сек
Стандарт вещания : Component
Цветовое пространство : YUV
Субдискретизация насыщенности : 4:2:0
Битовая глубина : 8 бит
Тип развёртки : Прогрессивная
Бит/(Пиксели*Кадры) : 0.197
Размер потока : 2,82 Гбайт (90%)
Default : Да
Forced : Нет
Цветовой диапазон : Limited
Основные цвета : BT.709
Характеристики трансфера : BT.709
Коэффициенты матрицы : BT.709

Аудио
Идентификатор : 2
Формат : AC-3
Формат/Информация : Audio Coding 3
Расширение режима : CM (complete main)
Параметр Endianness формата : Big
Идентификатор кодека : A_AC3
Продолжительность : 1 ч. 33 м.
Вид битрейта : Постоянный
Битрейт : 384 Кбит/сек
Каналы : 2 канала
Расположение каналов : Front: L R
Частота : 48,0 КГц
Частота кадров : 31,250 кадров/сек (1536 spf)
Метод сжатия : С потерями
Размер потока : 256 Мбайт (8%)
Default : Да
Forced : Нет

pb.wtf



Скачать Черный Коп через торрент http://img12.lostpic.net/2018/05/05/ef02b8b406ab30c53c29e17771210f89.jpg Скачать фильм Черный Коп через торрент бесплантно в хорошем качестве Описание: Темнокожий полицейский идет на крайности, выплескивая свой гнев и агрессию на народ, который он поклялся ... 8.3 10 4
Торрент: Зарегистрирован [2018-05-05 07:18] · скачан: 42 раз
Статус: T временная
Размер: 3.13 GB
Как cкачать? Как скачать Черный Коп через торрент | qTorrent

% Раздел Тема Автор DL S | L
T Фильмы (мультфильмы) cо спонсором показа (Новинки AVI/MKV) [ 1.37 GB ] Черный Коп / Black Cop [2017 WEB-DLRip] MVO ["Синема УС"] bober100 Скачать
1 | 0

28-11-2019 20:33  

Отключить всю рекламу на сайте

06-05-2018 12:38 Черный Коп Скачать торрент  

посмотрел - какоето черное закопмлексованое говно! не рекомендуюpb.wtf



    Дорогой пользователь! Огромная просьба, поблагодарите релизера, оцените раздачу и оставьте свои комментарий, если Вы скачали Черный Коп через торрент бесплатно! Внесите свою лепту в развитие PiratBit!
    Комментировать посты могут только пользователи прошедшие не сложную регистрацию
    Показать сообщения:    

    Черный Коп через торрент
    Скачать бесплатно Черный Коп
    Черный Коп скачать торрент
    Черный Коп смотреть онлайн
    Cкачать фильм Черный Коп бесплатно
    Черный Коп скачать торрент в хорошем качестве
    Черный Коп смотреть онлайн бесплатно в хорошем качестве


    Вы не можете начинать темы
    Вы не можете отвечать на сообщения
    Вы не можете редактировать свои сообщения
    Вы не можете удалять свои сообщения
    Вы не можете голосовать в опросах
    Вы не можете прикреплять файлы к сообщениям
    Вы можете скачивать файлы