Ссылка на приватное зеркало всего за 1$. Внимание количество ограничено!!!

OK

1+1

iTunes

мы

OK

1

WEB-DLRip

Джокер

Пифагор

Ведьмак / The Witcher сериал

iTunes

ПШазам

ОК

Оно 2

iTunes

30
pack

Вам бонус

ВАЖНО

!!Акция!!

Alien_RageХит недели

RePack

Resident Evil 21

ИГРА 18+

pack

RePack

jed

RePack

fifa19

RePack

Assassins Creed: Odyssey

RePack

NEED FOR SPEED™ PAYBACK

4 сезон

9 сезон

Бесстыжие 9 сезон

Все сериалы

все сериалы на PB.wtf

RePack

FAR CRY 5
  

Карманники: Мастера кражи / Pickpockets: Meister im Stehlen (Питер Веббер) [2018, Криминал, драма, WEB-DL 720p] MVO ["Синема УС"] pb.wtf

Карманники: Мастера кражи через торрент pb.wtf

Качают: 1 [ 0 KB/s ]
Размер: 3.83 GB | Добавлен: 1 год 8 мес. назад | Торрент скачан:179 раз
Скачать  

05-05-2018 07:32 Карманники: Мастера кражи Скачать торрент  

Карманники: Мастера кражи / Pickpockets: Meister im StehlenГод выпуска: 2018
Страна: Колумбия
Жанр: Криминал, драма
Продолжительность: 01:50:32
Перевод: Любительский (многоголосый) | "Синема УС"
Субтитры: отсутствуют

Режиссер: Питер Веббер

rating

В ролях:

Карлос Бардем, Карлос Умберто Камачо, Марсела Гардеасабаль, Дубан Андрес Прадо, Наталия Рейс

Описание:

Чтобы выплатить долги продажным полицейским, легендарный карманник и мастер обмана обучает трёх колумбийских подростков своему ремеслу, одновременно прикрывая их с помощью камер наблюдения.

Качество: WEB-DL 720p
Формат: MKV

Видео: h.264, 4 571 kb/s, 1280x534
Аудио#1: Русский, (AC3, 2 ch, 384 Кбит/с)
скриншот  скриншот  скриншот  

Общее
Уникальный идентификатор : 253310333457117296256766026434064721408 (0xBE91CBAF3EBDFC50AF3B99627CFCA600)
Полное имя : F:\Pickpockets.2018.P.WEB-DL.72Op_KOSHARA.mkv
Формат : Matroska
Версия формата : Version 2
Размер файла : 3,83 Гбайт
Продолжительность : 1 ч. 50 м.
Режим общего битрейта : Переменный
Общий поток : 4957 Кбит/сек
Дата кодирования : UTC 2018-05-04 00:37:43
Программа кодирования : mkvmerge v8.3.0 ('Over the Horizon') 64bit
Библиотека кодирования : libebml v1.3.1 + libmatroska v1.4.2

Видео
Идентификатор : 1
Формат : AVC
Формат/Информация : Advanced Video Codec
Профиль формата : High@L4.1
Параметр CABAC формата : Да
Параметр RefFrames формата : 4 кадра
Идентификатор кодека : V_MPEG4/ISO/AVC
Продолжительность : 1 ч. 50 м.
Вид битрейта : Переменный
Битрейт : 4571 Кбит/сек
Максимальный битрейт : 5000 Кбит/сек
Ширина : 1280 пикселей
Высота : 534 пикселя
Соотношение сторон : 2,40:1
Режим частоты кадров : Постоянный
Частота кадров : 23,976 (24000/1001) кадра/сек
Стандарт вещания : Component
Цветовое пространство : YUV
Субдискретизация насыщенности : 4:2:0
Битовая глубина : 8 бит
Тип развёртки : Прогрессивная
Бит/(Пиксели*Кадры) : 0.273
Размер потока : 3,46 Гбайт (90%)
Default : Да
Forced : Нет
Цветовой диапазон : Limited
Основные цвета : BT.709
Характеристики трансфера : BT.709
Коэффициенты матрицы : BT.709

Аудио
Идентификатор : 2
Формат : AC-3
Формат/Информация : Audio Coding 3
Расширение режима : CM (complete main)
Параметр Endianness формата : Big
Идентификатор кодека : A_AC3
Продолжительность : 1 ч. 50 м.
Вид битрейта : Постоянный
Битрейт : 384 Кбит/сек
Каналы : 2 канала
Расположение каналов : Front: L R
Частота : 48,0 КГц
Частота кадров : 31,250 кадров/сек (1536 spf)
Метод сжатия : С потерями
Размер потока : 304 Мбайт (8%)
Default : Да
Forced : Нет

pb.wtf



Скачать Карманники: Мастера кражи через торрент https://b.radikal.ru/b38/1805/bc/7588b90afbfc.jpg Скачать фильм Карманники: Мастера кражи через торрент бесплантно в хорошем качестве Описание: Чтобы выплатить долги продажным полицейским, легендарный карманник и мастер обмана обучает трёх колумбийских подростков своему ... 10 10 4
Торрент: Зарегистрирован [2018-05-05 07:32] · скачан: 179 раз
Статус: T временная
Размер: 3.83 GB
Как cкачать? Как скачать Карманники: Мастера кражи через торрент | qTorrent

% Раздел Тема Автор DL S | L
T Фильмы (мультфильмы) cо спонсором показа (Новинки AVI/MKV) [ 1.46 GB ] Карманники: Мастера кражи / Pickpockets: Meister im Stehlen [2018 WEB-DLRip] MVO ["Синема УС"] bober100 Скачать
1 | 0

28-11-2019 20:33  

Отключить всю рекламу на сайте

    Дорогой пользователь! Огромная просьба, поблагодарите релизера, оцените раздачу и оставьте свои комментарий, если Вы скачали Карманники: Мастера кражи через торрент бесплатно! Внесите свою лепту в развитие PiratBit!
    Комментировать посты могут только пользователи прошедшие не сложную регистрацию
    Показать сообщения:    

    Карманники: Мастера кражи через торрент
    Скачать бесплатно Карманники: Мастера кражи
    Карманники: Мастера кражи скачать торрент
    Карманники: Мастера кражи смотреть онлайн
    Cкачать фильм Карманники: Мастера кражи бесплатно
    Карманники: Мастера кражи скачать торрент в хорошем качестве
    Карманники: Мастера кражи смотреть онлайн бесплатно в хорошем качестве


    Вы не можете начинать темы
    Вы не можете отвечать на сообщения
    Вы не можете редактировать свои сообщения
    Вы не можете удалять свои сообщения
    Вы не можете голосовать в опросах
    Вы не можете прикреплять файлы к сообщениям
    Вы можете скачивать файлы