новый адрес
Мега распродажа FORZA HORIZON 4 ULTIMATE+ВСЕ DLC+ОНЛАЙН всего за 499р. 349 руб. (супер цена). Внимание количество ограничено!!!

iTunes

1+1

iTunes

мы

iTunes

1

iTunes

Чернобыль

iTunes

Ральф против интернета

Лицензия

ПШазам

Лицензия

Игра престолов

Лицензия

30
pack

ВАЖНО

!!Акция!!

Alien_RageХит недели

RePack

Resident Evil 21

ИГРА 18+

pack

RePack

Metro:Exodus

!!Акция!!

Alien_Rage

RePack

fifa19

RePack

Assassins Creed: Odyssey

RePack

NEED FOR SPEED™ PAYBACK

3 сезон

9 сезон

Бесстыжие 9 сезон

Все сериалы

все сериалы на PB.wtf

RePack

FAR CRY 5
Ребята, катастрофически не хватает 1900р. для оплаты серверов за Октябрь (всвязи с блокировками трафик упал в 3 раза), 1-2р., выручайте.
  

Время летних отпусков (Константин Воинов) [1960, СССР, драма, SATRip от AVP Studio] pb.wtf

Время летних отпусков через торрент pb.wtf

Размер: 744 MB | Добавлен: 1 год 6 мес. назад | Торрент скачан:34 раза
Скачать  

05-05-2018 08:39 Время летних отпусков Скачать торрент  

Время летних отпусков
Страна: СССР
Производство: Мосфильм

Жанр: драма
Год выпуска: 1960
Продолжительность: 01:28:40

Перевод: Не требуется
Cубтитры: нет
Оригинальная аудиодорожка: русский

Режиссер: Константин Воинов

В ролях:
Раиса Куркина, Валентин Зубков, Татьяна Конюхова, Иван Кузнецов, Иван Жеваго, Павел Павленко, Павел Тарасов, Виктор Хохряков, Лев Борисов, Олег Туманов, Владимир Этуш, Кларина Фролова-Воронцова, Нина Агапова, Альвиан Фомин, Александр Ильин...
Об актёрах подробней

Описание:
Как только в северные края пришло лето, инженер-геолог Светлана Панышко (Раиса Куркина), всю зиму мечтавшая о южном небе и теплом море, собралась в отпуск. Но в день отъезда на Светлану свалилось неожиданное задание - временно руководить промыслом. Нефтяной пласт на Унь-Яге давно истощился и промысел регулярно не выполнял план. Но ее друг - механик Глеб Горелов (Валентин Зубков) - предложил свой способ нефтедобычи с помощью водяного давления. Светлана отказалась от поездки и взяла малое хозяйство в свои руки...

Исходник: DVB
Качество видео: SATRip
Формат видео: AVI

Видео: 688x320 (2,2:1), 25,000 кадров/сек, XviD ~ 971 kbps avg, 0.176 bit/pixel
Аудио: 48 kHz, Dolby Digital AC3 2.0, 192 kbps

Раздача от:
Общее
Полное имя : Vremya.letnih.otpuskov.1960.SATRip_[New-team]_by_AVP_Studio.avi
Формат : AVI
Формат/Информация : Audio Video Interleave
Размер файла : 744 Мбайт
Продолжительность : 1 ч. 28 м.
Общий поток : 1173 Кбит/сек
Программа кодирования : VirtualDubMod 1.5.10.3 | www.virtualdub-fr.org || (build 2550/release)
Библиотека кодирования : VirtualDubMod build 2550/release

Видео
Идентификатор : 0
Формат : MPEG-4 Visual
Профиль формата : Advanced Simple@L5
Настройки формата : BVOP1 / Custom Matrix
Параметр BVOP формата : 1
Параметр QPel формата : Нет
Параметр GMC формата : Без точки перехода
Параметр матрицы формата : Выборочная
Идентификатор кодека : XVID
Идентификатор кодека/Подсказка : XviD
Продолжительность : 1 ч. 28 м.
Битрейт : 971 Кбит/сек
Ширина : 688 пикселей
Высота : 320 пикселей
Соотношение сторон : 2,2:1
Частота кадров : 25,000 кадров/сек
Цветовое пространство : YUV
Субдискретизация насыщенности : 4:2:0
Битовая глубина : 8 бит
Тип развёртки : Прогрессивная
Метод сжатия : С потерями
Бит/(Пиксели*Кадры) : 0.176
Размер потока : 616 Мбайт (83%)
Библиотека кодирования : XviD 73

Аудио
Идентификатор : 1
Формат : AC-3
Формат/Информация : Audio Coding 3
Идентификатор кодека : 2000
Продолжительность : 1 ч. 28 м.
Вид битрейта : Постоянный
Битрейт : 192 Кбит/сек
Каналы : 2 канала
Расположение каналов : Front: L R
Частота : 48,0 КГц
Частота кадров : 31,250 кадров/сек (1536 SPF)
Битовая глубина : 16 бит
Метод сжатия : С потерями
Размер потока : 122 Мбайт (16%)
Выравнивание : Разделение по промежуткам
Продолжительность промежутка : 40 мс. (1,00 видеокадр)
Время предзагрузки промежутка : 500 мс
pb.wtf



Скачать Время летних отпусков через торрент http://picplus.ru/img/1805/05/5612891e.png Скачать фильм Время летних отпусков через торрент бесплантно в хорошем качестве Описание:Как только в северные края пришло лето, инженер-геолог Светлана Панышко (Раиса Куркина), всю зиму мечтавшая о южном небе и теплом ... 5 10 1
Info! Золотая раздача, скачанное не засчитывается.
Торрент: Зарегистрирован [2018-05-05 08:39] · скачан: 34 раз
Статус: √ проверено
Размер: 744 MB
Как cкачать? Как скачать Время летних отпусков через торрент | qTorrent

% Раздел Тема Автор DL S | L
Кино СССР [ 744 MB ] Время летних отпусков [1960 СССР SATRip-AVC от AVP Studio] AVP Studio Скачать
1 | 0


>> Регистрируемся здесь <<






Отзывы и комментарии о схеме читаем и пишем здесь: ---> Отзывы и комментарии о схеме

Новые благодарочки в телеграм довольных пользователей:
скриншот   скриншот   скриншот   скриншот   скриншот
    Дорогой пользователь! Огромная просьба, поблагодарите релизера, оцените раздачу и оставьте свои комментарий, если Вы скачали Время летних отпусков через торрент бесплатно! Внесите свою лепту в развитие PiratBit!
    Комментировать посты могут только пользователи прошедшие не сложную регистрацию
    Показать сообщения:    

    Время летних отпусков через торрент
    Скачать бесплатно Время летних отпусков
    Время летних отпусков скачать торрент
    Время летних отпусков смотреть онлайн
    Cкачать фильм Время летних отпусков бесплатно
    Время летних отпусков скачать торрент в хорошем качестве
    Время летних отпусков смотреть онлайн бесплатно в хорошем качестве


    Вы не можете начинать темы
    Вы не можете отвечать на сообщения
    Вы не можете редактировать свои сообщения
    Вы не можете удалять свои сообщения
    Вы не можете голосовать в опросах
    Вы не можете прикреплять файлы к сообщениям
    Вы можете скачивать файлы