новый адрес
Мега распродажа FORZA HORIZON 4 ULTIMATE+ВСЕ DLC+ОНЛАЙН всего за 499р. 349 руб. (супер цена). Внимание количество ограничено!!!

iTunes

1+1

iTunes

мы

iTunes

1

iTunes

Чернобыль

iTunes

Ральф против интернета

Лицензия

ПШазам

Лицензия

Игра престолов

Лицензия

30
pack

ВАЖНО

!!Акция!!

Alien_RageХит недели

RePack

Resident Evil 21

ИГРА 18+

pack

RePack

Metro:Exodus

!!Акция!!

Alien_Rage

RePack

fifa19

RePack

Assassins Creed: Odyssey

RePack

NEED FOR SPEED™ PAYBACK

3 сезон

9 сезон

Бесстыжие 9 сезон

Все сериалы

все сериалы на PB.wtf

RePack

FAR CRY 5
Ребята, катастрофически не хватает 1900р. для оплаты серверов за Октябрь (всвязи с блокировками трафик упал в 3 раза), 1-2р., выручайте.
  

Время летних отпусков (Константин Воинов) [1960, СССР, драма, SATRip-AVC от AVP Studio] pb.wtf

Время летних отпусков через торрент pb.wtf

Размер: 744 MB | Добавлен: 1 год 6 мес. назад | Торрент скачан:15 раз
Скачать  

05-05-2018 08:40 Время летних отпусков Скачать торрент  

Время летних отпусков
Страна: СССР
Производство: Мосфильм

Жанр: драма
Год выпуска: 1960
Продолжительность: 01:28:40

Перевод: Не требуется
Cубтитры: нет
Оригинальная аудиодорожка: русский

Режиссер: Константин Воинов

В ролях:
Раиса Куркина, Валентин Зубков, Татьяна Конюхова, Иван Кузнецов, Иван Жеваго, Павел Павленко, Павел Тарасов, Виктор Хохряков, Лев Борисов, Олег Туманов, Владимир Этуш, Кларина Фролова-Воронцова, Нина Агапова, Альвиан Фомин, Александр Ильин...
Об актёрах подробней

Описание:
Как только в северные края пришло лето, инженер-геолог Светлана Панышко (Раиса Куркина), всю зиму мечтавшая о южном небе и теплом море, собралась в отпуск. Но в день отъезда на Светлану свалилось неожиданное задание - временно руководить промыслом. Нефтяной пласт на Унь-Яге давно истощился и промысел регулярно не выполнял план. Но ее друг - механик Глеб Горелов (Валентин Зубков) - предложил свой способ нефтедобычи с помощью водяного давления. Светлана отказалась от поездки и взяла малое хозяйство в свои руки...

Исходник: DVB
Качество видео: SATRip-AVC
Формат видео: MKV

Видео: 696->743x345 (2,2:1), 25,000 кадров/сек, H264 ~ 980 kbps avg, 0.165 bit/pixel
Аудио: 48 kHz, Dolby Digital AC3 2.0, 192 kbps

Раздача от:
Общее
Полное имя : Vremya.letnih.otpuskov.1960.SATRip-AVC_[New-team]_by_AVP_Studio.mkv
Формат : Matroska
Версия формата : Version 2
Размер файла : 744 Мбайт
Продолжительность : 1 ч. 28 м.
Общий поток : 1174 Кбит/сек
Дата кодирования : UTC 2018-04-29 14:22:02
Программа кодирования : mkvmerge v6.1.0 ('Old Devil') built on Mar 4 2013 09:10:42
Библиотека кодирования : libebml v1.3.0 + libmatroska v1.4.0

Видео
Идентификатор : 1
Формат : AVC
Формат/Информация : Advanced Video Codec
Профиль формата : High@L4.1
Настройки формата : CABAC / 10 Ref Frames
Параметр CABAC формата : Да
Параметр RefFrames формата : 10 кадров
Идентификатор кодека : V_MPEG4/ISO/AVC
Продолжительность : 1 ч. 28 м.
Битрейт : 980 Кбит/сек
Ширина : 696 пикселей
Высота : 342 пикселя
Соотношение сторон : 2,2:1
Соотношение сторон в оригинале : 2,2:1
Режим частоты кадров : Постоянный
Частота кадров : 25,000 кадров/сек
Цветовое пространство : YUV
Субдискретизация насыщенности : 4:2:0
Битовая глубина : 8 бит
Тип развёртки : Прогрессивная
Бит/(Пиксели*Кадры) : 0.165
Размер потока : 608 Мбайт (82%)
Библиотека кодирования : x264 core 130 r2273 b3065e6
Настройки программы : cabac=1 / ref=10 / deblock=1:-2:-1 / analyse=0x3:0x113 / me=umh / subme=10 / psy=1 / psy_rd=1.00:0.00 / mixed_ref=1 / me_range=32 / chroma_me=1 / trellis=2 / 8x8dct=1 / cqm=0 / deadzone=21,11 / fast_pskip=1 / chroma_qp_offset=-2 / threads=6 / lookahead_threads=1 / sliced_threads=0 / nr=0 / decimate=0 / interlaced=0 / bluray_compat=0 / constrained_intra=0 / bframes=8 / b_pyramid=2 / b_adapt=2 / b_bias=0 / direct=3 / weightb=1 / open_gop=0 / weightp=2 / keyint=250 / keyint_min=25 / scenecut=40 / intra_refresh=0 / rc=2pass / mbtree=0 / bitrate=980 / ratetol=1.0 / qcomp=0.60 / qpmin=0 / qpmax=69 / qpstep=4 / cplxblur=20.0 / qblur=0.5 / ip_ratio=1.40 / pb_ratio=1.30 / aq=1:1.00
Default : Да
Forced : Нет

Аудио
Идентификатор : 2
Формат : AC-3
Формат/Информация : Audio Coding 3
Идентификатор кодека : A_AC3
Продолжительность : 1 ч. 28 м.
Вид битрейта : Постоянный
Битрейт : 192 Кбит/сек
Каналы : 2 канала
Расположение каналов : Front: L R
Частота : 48,0 КГц
Частота кадров : 31,250 кадров/сек (1536 SPF)
Битовая глубина : 16 бит
Метод сжатия : С потерями
Размер потока : 122 Мбайт (16%)
Default : Да
Forced : Нет
pb.wtf



Скачать Время летних отпусков через торрент http://picplus.ru/img/1805/05/5612891e.png Скачать фильм Время летних отпусков через торрент бесплантно в хорошем качестве Описание:Как только в северные края пришло лето, инженер-геолог Светлана Панышко (Раиса Куркина), всю зиму мечтавшая о южном небе и теплом ... 5 10 1
Info! Золотая раздача, скачанное не засчитывается.
Торрент: Зарегистрирован [2018-05-05 08:40] · скачан: 15 раз
Статус: √ проверено
Размер: 744 MB
Как cкачать? Как скачать Время летних отпусков через торрент | qTorrent

% Раздел Тема Автор DL S | L
Кино СССР [ 744 MB ] Время летних отпусков [1960 СССР SATRip от AVP Studio] AVP Studio Скачать
1 | 0


>> Регистрируемся здесь <<






Отзывы и комментарии о схеме читаем и пишем здесь: ---> Отзывы и комментарии о схеме

Новые благодарочки в телеграм довольных пользователей:
скриншот   скриншот   скриншот   скриншот   скриншот
    Дорогой пользователь! Огромная просьба, поблагодарите релизера, оцените раздачу и оставьте свои комментарий, если Вы скачали Время летних отпусков через торрент бесплатно! Внесите свою лепту в развитие PiratBit!
    Комментировать посты могут только пользователи прошедшие не сложную регистрацию
    Показать сообщения:    

    Время летних отпусков через торрент
    Скачать бесплатно Время летних отпусков
    Время летних отпусков скачать торрент
    Время летних отпусков смотреть онлайн
    Cкачать фильм Время летних отпусков бесплатно
    Время летних отпусков скачать торрент в хорошем качестве
    Время летних отпусков смотреть онлайн бесплатно в хорошем качестве


    Вы не можете начинать темы
    Вы не можете отвечать на сообщения
    Вы не можете редактировать свои сообщения
    Вы не можете удалять свои сообщения
    Вы не можете голосовать в опросах
    Вы не можете прикреплять файлы к сообщениям
    Вы можете скачивать файлы