Ссылка на приватное зеркало нашего сайта всего за 1$. Внимание количество ограничено!!!

2 сезон

iTunes

1 сезон

1

iTunes

iTunes

iTunes

1 сезон

RePack

30

ИГРА 18+

pack

ВАЖНО

!!Акция!!

Alien_RageХит недели

RePack

MK11
pack

Забери бонус

RePack

jed

!!Акция!!

Alien_Rage

RePack

fifa19

RePack

Assassins Creed: Odyssey

RePack

NEED FOR SPEED™ PAYBACK

4 сезон

9 сезон

Бесстыжие 9 сезон

Все сериалы

все сериалы на PB.wtf

RePack

FAR CRY 5
  

Дом с черными котами / Серии: 1-4 из 4 (Игорь Нурисламов) [2018, Детектив, мелодрама, SATRip] pb.wtf

Дом с черными котами через торрент pb.wtf

Размер: 2.35 GB | Добавлен: 2 года 5 мес. назад | Торрент скачан:65 раз
Скачать  

05-05-2018 11:37 Дом с черными котами Скачать торрент  

Дом с черными котамиГод выпуска: 2018
Страна: Россия
Жанр: Детектив, мелодрама
Продолжительность: ~ 00:45:40
Субтитры: отсутствуют

Режиссер: Игорь Нурисламов



В ролях:

Татьяна Чердынцева, Владимир Жеребцов, Владимир Петров (VIII), Валентин Воробьёв, Елена Мартыненко, Алексей Красноцветов, Алексей Штукин, Вероника Норина, Андрей Аверков, Светлана Смирнова-Кацагаджиева, Олег Леваков, Михаил Батуев, Валерий Кухарешин, Артур Ваха, Артём Лещик, Евгения Любимова, Данила Воропаев, Руслан Барабанов, Виктор Выбриенко

Описание:

Тоня - укладчица текста на студии дубляжа. Она работает над фильмом, в котором использованы документальные кадры. На экране Тоня видит человека, отчаянное лицо которого ее поражает. Он что-то кричит. Тоня обращается к лингвисту и узнает, что человек на экране кричал по-латышски буквально следующее: "Меня убьют! Ищите в кошачьем доме, семь! Юо! Юо!". Тоня просит журналиста Марину, живущую в Риге, разыскать человека, снявшего хронику. Та выясняет, что телевизионщик погиб. А на следующий день пропадает и сама Марина. Тоня едет в Латвию, еще не догадываясь, куда заведет ее эта история, которая началась еще в XV веке...

Качество: SATRip
Формат: AVI

Видео: XviD, 1636 Кбит/с, 720x400
Аудио: AC3, 2 ch, 192 Кбит/с
скриншот  скриншот  скриншот  скриншот  скриншот  

Общее
Полное имя : E:\Дом с черными котами.2018.SATRip.by.Nicodem.Files-x\01.Дом с черными котами.2018.SATRip.by.Nicodem.Files-x.avi
Формат : AVI
Формат/Информация : Audio Video Interleave
Размер файла : 601 Мбайт
Продолжительность : 45 м. 40 с.
Общий поток : 1838 Кбит/сек
Программа кодирования : VirtualDubMod 1.5.10.3 | www.virtualdub-fr.org || (build 2550/release)
Библиотека кодирования : VirtualDubMod build 2550/release

Видео
Идентификатор : 0
Формат : MPEG-4 Visual
Профиль формата : Advanced Simple@L5
Настройки формата : BVOP1 / QPel / Custom Matrix
Параметр BVOP формата : 1
Параметр QPel формата : Да
Параметр GMC формата : Без точки перехода
Параметр матрицы формата : Выборочная
Идентификатор кодека : XVID
Идентификатор кодека/Подсказка : XviD
Продолжительность : 45 м. 40 с.
Битрейт : 1636 Кбит/сек
Ширина : 720 пикселей
Высота : 400 пикселей
Соотношение сторон : 16:9
Частота кадров : 25,000 кадров/сек
Цветовое пространство : YUV
Субдискретизация насыщенности : 4:2:0
Битовая глубина : 8 бит
Тип развёртки : Прогрессивная
Метод сжатия : С потерями
Бит/(Пиксели*Кадры) : 0.227
Размер потока : 535 Мбайт (89%)
Библиотека кодирования : XviD 73

Аудио
Идентификатор : 1
Формат : AC-3
Формат/Информация : Audio Coding 3
Идентификатор кодека : 2000
Продолжительность : 45 м. 40 с.
Вид битрейта : Постоянный
Битрейт : 192 Кбит/сек
Каналы : 2 канала
Расположение каналов : Front: L R
Частота : 48,0 КГц
Частота кадров : 31,250 кадров/сек (1536 SPF)
Битовая глубина : 16 бит
Метод сжатия : С потерями
Размер потока : 62,7 Мбайт (10%)
Выравнивание : Разделение по промежуткам
Продолжительность промежутка : 40 мс. (1,00 видеокадр)
Время предзагрузки промежутка : 500 мс.
ServiceKind/String : Complete Main

Внимание! Раздача ведётся путём добавления новых серий; при каждом добавлении создfётся новый торрент. Чтобы начать докачку новой серии, пользователям необходимо сделать следующее: (1) остановить скачивание, (2) удалить старый торрент у себя из клиента (старые серии удалять не надо), (3) скачать новый торрент и запустить его у себя в клиенте вместо старого, при этом указать клиенту путь в старую папку куда и должно происходить скачивание новых серий.

Ваш клиент при этом должен произвести хеширование (проверку) старой папки (если не производит сам - помогите ему сделать это), и будет докачивать только те серии которых у вас ещё нет. Старые серии при этом не удаляются, а продолжают раздаваться!

Eсли вы уже удалили старые серии, то предотвратить повторную закачку старых серий можно, отжав галочку в соответсвующих местах при запуске нового торрента.
pb.wtf



Скачать Дом с черными котами через торрент http://i104.fastpic.ru/big/2018/0505/58/63ebf0a4a402599bffbb766c896a0a58.jpg Скачать фильм Дом с черными котами через торрент бесплантно в хорошем качестве Описание: Тоня - укладчица текста на студии дубляжа. Она работает над фильмом, в котором использованы документальные кадры. На экране Тоня ... 10 10 3
Торрент: Зарегистрирован [2018-05-05 19:51] · скачан: 65 раз
Статус: √ проверено
Размер: 2.35 GB
Как cкачать? Как скачать Дом с черными котами через торрент | qTorrent

% Раздел Тема Автор DL S | L
Наши сериалы [ 2.38 GB ] Дом с черными котами / Серии: 1-4 из 4 [2018 WEB-DLRip-AVC] bober100 Скачать
1 | 0
Наши сериалы [ 2.21 GB ] Дом с черными котами / Серии: 1-4 из 4 [2018 WEB-DLRip] bober100 Скачать
2 | 0

28-11-2019 20:33  

Отключить всю рекламу на сайте

    Дорогой пользователь! Огромная просьба, поблагодарите релизера, оцените раздачу и оставьте свои комментарий, если Вы скачали Дом с черными котами через торрент бесплатно! Внесите свою лепту в развитие PiratBit!
    Комментировать посты могут только пользователи прошедшие не сложную регистрацию
    Показать сообщения:    

    Дом с черными котами через торрент
    Скачать бесплатно Дом с черными котами
    Дом с черными котами скачать торрент
    Дом с черными котами смотреть онлайн
    Cкачать фильм Дом с черными котами бесплатно
    Дом с черными котами скачать торрент в хорошем качестве
    Дом с черными котами смотреть онлайн бесплатно в хорошем качестве


    Вы не можете начинать темы
    Вы не можете отвечать на сообщения
    Вы не можете редактировать свои сообщения
    Вы не можете удалять свои сообщения
    Вы не можете голосовать в опросах
    Вы не можете прикреплять файлы к сообщениям
    Вы можете скачивать файлы