Ссылка на приватное зеркало нашего сайта всего за 1$. Внимание количество ограничено!!!

2 сезон

iTunes

1 сезон

1

2 сезон

2 сезон

iTunes

1 сезон

RePack

30

Новинка

ВАЖНО

ИГРА 18+

pack

RePack

MK11
pack

Забери бонус

RePack

jed

!!Акция!!

Alien_Rage

RePack

fifa19

RePack

Assassins Creed: Odyssey

RePack

NEED FOR SPEED™ PAYBACK

4 сезон

9 сезон

Бесстыжие 9 сезон

Все сериалы

все сериалы на PB.wtf

RePack

FAR CRY 5
  

Мир дикого запада / Westworld / Сезон: 2 / Серии: 1-10 из 10 (Джонатан Нолан, Джонни Кэмпбелл, Ричард Дж. Льюис) [2018, фантастика, триллер, вестерн, WEB-DL 1080p] MVO [NewStudio] pb.wtf

Мир дикого запада через торрент pb.wtf

Размер: 56.21 GB | Добавлен: 2 года 5 мес. назад | Торрент скачан:108 раз
Скачать  

05-05-2018 12:13 Мир дикого запада Скачать торрент  

Мир дикого запада / Westworld
Год выпуска: 2018
Страна: США
Жанр: фантастика, триллер, вестерн
Продолжительность: ~ 00:43:00 серия
Перевод: Профессиональный многоголосый |
Субтитры: Русские, английские

Режиссер: Джонатан Нолан, Джонни Кэмпбелл, Ричард Дж. Льюис

rating

В ролях:


Эван Рэйчел Вуд (Dolores Abernathy), Тэнди Ньютон (Maeve Millay), Джеффри Райт (Bernard Lowe), Джеймс Марсден (Teddy Flood), Эд Харрис (Man in Black), Талула Райли (Angela), Луис Хертэм (Peter Abernathy), Энтони Хопкинс (Dr. Robert Ford), Дэниэл ТуФизерс (Ghost Nation Warrior), Люк Хемсворт (Ashley Stubbs), Анджела Сарафян (Clementine Pennyfeather), Джимми Симпсон (William)
Описание:

В футуристическом парке развлечений андроиды на фоне для исторических декораций становятся рабами людей, выполняя рутинные задания, пока в один момент сбой в программе не превращает их в опасных убийц.

Качество: WEB-DL 1080p
Формат: MKV

Видео: MPEG-4 AVC, ~ 10,3 Мбит/с, 1980x1080
Аудио#1: Русский (AC3, 6 ch, 384 Кбит/с)
Аудио#2: английский (AC3, 6 ch, 384 Кбит/с)


скриншот  скриншот  скриншот  скриншот  

Общее
Уникальный идентификатор : 187494008597314637226341840462387353655 (0x8D0E0855878D5BDA99D9DCDA1EDC1837)
Полное имя : E:\Мир Дикого Запада (сезон 2) Westworld (2018) WEB-DL 1080p - NewStudio\Westworld.S02E01.WEBDL1080p.Rus.Eng.DV.NewStudio.mkv
Формат : Matroska
Версия формата : Version 4 / Version 2
Размер файла : 5,69 Гбайт
Продолжительность : 1 ч. 13 м.
Режим общего битрейта : Переменный
Общий поток : 11,1 Мбит/сек
Название фильма : Westworld.S02E01.WEBDL1080p.Rus.Eng.DV.NewStudio / NNM-Club
Дата кодирования : UTC 2018-04-26 05:27:52
Программа кодирования : mkvmerge v8.2.0 ('World of Adventure') 64bit
Библиотека кодирования : libebml v1.3.1 + libmatroska v1.4.2
Обложка : Yes
Attachments : Cover

Видео
Идентификатор : 1
Формат : AVC
Формат/Информация : Advanced Video Codec
Профиль формата : High@L4
Настройки формата : CABAC / 4 Ref Frames
Параметр CABAC формата : Да
Параметр RefFrames формата : 4 кадра
Идентификатор кодека : V_MPEG4/ISO/AVC
Продолжительность : 1 ч. 13 м.
Вид битрейта : Переменный
Битрейт : 10,3 Мбит/сек
Максимальный битрейт : 15,0 Мбит/сек
Ширина : 1920 пикселей
Высота : 1080 пикселей
Соотношение сторон : 16:9
Режим частоты кадров : Постоянный
Частота кадров : 23,976 (24000/1001) кадра/сек
Цветовое пространство : YUV
Субдискретизация насыщенности : 4:2:0
Битовая глубина : 8 бит
Тип развёртки : Прогрессивная
Бит/(Пиксели*Кадры) : 0.207
Размер потока : 5,30 Гбайт (93%)
Язык : English
Default : Да
Forced : Нет
Цветовой диапазон : Limited
Основные цвета : BT.709
Характеристики трансфера : BT.709
Коэффициенты матрицы : BT.709

Аудио #1
Идентификатор : 2
Формат : AC-3
Формат/Информация : Audio Coding 3
Идентификатор кодека : A_AC3
Продолжительность : 1 ч. 13 м.
Вид битрейта : Постоянный
Битрейт : 384 Кбит/сек
Каналы : 6 каналов
Расположение каналов : Front: L C R, Side: L R, LFE
Частота : 48,0 КГц
Частота кадров : 31,250 кадров/сек (1536 SPF)
Битовая глубина : 16 бит
Метод сжатия : С потерями
Размер потока : 202 Мбайт (3%)
Заголовок : NewStudio
Язык : Russian
ServiceKind/String : Complete Main
Default : Да
Forced : Нет

Аудио #2
Идентификатор : 3
Формат : AC-3
Формат/Информация : Audio Coding 3
Идентификатор кодека : A_AC3
Продолжительность : 1 ч. 13 м.
Вид битрейта : Постоянный
Битрейт : 384 Кбит/сек
Каналы : 6 каналов
Расположение каналов : Front: L C R, Side: L R, LFE
Частота : 48,0 КГц
Частота кадров : 31,250 кадров/сек (1536 SPF)
Битовая глубина : 16 бит
Метод сжатия : С потерями
Размер потока : 202 Мбайт (3%)
Язык : English
ServiceKind/String : Complete Main
Default : Нет
Forced : Нет

Текст #1
Идентификатор : 4
Формат : UTF-8
Идентификатор кодека : S_TEXT/UTF8
Идентификатор кодека/Информация : UTF-8 Plain Text
Продолжительность : 1 ч. 6 м.
Битрейт : 50 бит/сек
ElementCount : 605
Размер потока : 24,4 Кбайт (0%)
Язык : Russian
Default : Нет
Forced : Нет

Текст #2
Идентификатор : 5
Формат : UTF-8
Идентификатор кодека : S_TEXT/UTF8
Идентификатор кодека/Информация : UTF-8 Plain Text
Продолжительность : 1 ч. 12 м.
Битрейт : 37 бит/сек
ElementCount : 697
Размер потока : 20,0 Кбайт (0%)
Язык : English
Default : Нет
Forced : Нет

Внимание! Раздача ведётся путём добавления новых серий; при каждом добавлении создаётся новый торрент. Чтобы начать докачку новой серии, пользователям необходимо сделать следующее:
(1) остановить скачивание,
(2) удалить старый торрент у себя из клиента (старые серии удалять не надо),
(3) скачать новый торрент и запустить его у себя в клиенте вместо старого, при этом указать клиенту путь в старую папку куда и должно происходить скачивание новых серий.
Ваш клиент при этом должен произвести хеширование (проверку) старой папки (если не производит сам - помогите ему сделать это), и будет докачивать только те серии которых у вас ещё нет. Старые серии при этом не удаляются, а продолжают раздаваться!
Eсли вы уже удалили старые серии, то предотвратить повторную закачку старых серий можно, отжав галочку в соответствующих местах при запуске нового торрента. По возможности, желательно не удалять старые серии как можно дольше чтобы релизёр не столько продолжал раздавать старые серии, а смог сконцентрироваться на новых.
pb.wtf



Скачать Мир дикого запада через торрент http://pic1.kartinco.top/images/11/orxec.jpg Скачать фильм Мир дикого запада через торрент бесплантно в хорошем качестве Описание: В футуристическом парке развлечений андроиды на фоне для исторических декораций становятся рабами людей, выполняя рутинные ... 10 10 12
Info! Золотая раздача, скачанное не засчитывается.
Торрент: Зарегистрирован [2018-06-29 09:16] · скачан: 108 раз
Статус: √ проверено
Размер: 56.21 GB
Как cкачать? Как скачать Мир дикого запада через торрент | qTorrent

% Раздел Тема Автор DL S | L
Зарубежные сериалы [ 58.73 GB ] Мир дикого запада / Westworld / Сезон: 2 / Серии: 1-10 из 10 [2018 WEBRip 1080p] [MVO] killermax2013 Скачать
2 | 0
Зарубежные сериалы [ 19.86 GB ] Мир Дикого запада / Westworld / Сезон: 2 / Серии: 1-10 из 10 [2018 WEBRip 720p] MVO [Good People] bober100 Скачать
1 | 0
Зарубежные сериалы [ 7.77 GB ] Мир Дикого запада / Westworld / Сезон: 2 / Серии: 1-10 из 10 [2018 WEB-DLRip] MVO [Good People] bober100 Скачать
1 | 0
Зарубежные сериалы [ 197.84 GB ] Мир Дикого запада / Westworld / Сезон: 2 / Серии: 1-10 из 10 [2018 UHD BDRemux 2160p] DUB [Amedia] sheker187 Скачать
2 | 0
Зарубежные сериалы [ 19.44 GB ] Мир дикого запада / Westworld / Сезон: 2 / Серии: 1-10 из 10 [2018 WEB-DL 720p] [MVO] killermax2013 Скачать
1 | 0
Зарубежные сериалы [ 7.7 GB ] Мир дикого запада / Westworld / Сезон: 2 / Серии: 1-10 из 10 [2018 WEB-DLRip] [MVO] killermax2013 Скачать
1 | 0
Зарубежные сериалы [ 8.16 GB ] Мир дикого запада / Westworld / Сезон: 2 / Серии: 1-10 из 10 [2018 WEB-DLRip] DUB [Amedia] bober100 Скачать
1 | 0

28-11-2019 20:33  

Отключить всю рекламу на сайте

    Дорогой пользователь! Огромная просьба, поблагодарите релизера, оцените раздачу и оставьте свои комментарий, если Вы скачали Мир дикого запада через торрент бесплатно! Внесите свою лепту в развитие PiratBit!
    Комментировать посты могут только пользователи прошедшие не сложную регистрацию
    Показать сообщения:    

    Мир дикого запада через торрент
    Скачать бесплатно Мир дикого запада
    Мир дикого запада скачать торрент
    Мир дикого запада смотреть онлайн
    Cкачать фильм Мир дикого запада бесплатно
    Мир дикого запада скачать торрент в хорошем качестве
    Мир дикого запада смотреть онлайн бесплатно в хорошем качестве


    Вы не можете начинать темы
    Вы не можете отвечать на сообщения
    Вы не можете редактировать свои сообщения
    Вы не можете удалять свои сообщения
    Вы не можете голосовать в опросах
    Вы не можете прикреплять файлы к сообщениям
    Вы можете скачивать файлы