Ссылка на приватное зеркало нашего сайта всего за 1$. Внимание количество ограничено!!!

2 сезон

iTunes

1 сезон

1

iTunes

iTunes

iTunes

1 сезон

RePack

30

ИГРА 18+

pack

ВАЖНО

!!Акция!!

Alien_RageХит недели

RePack

MK11
pack

Забери бонус

RePack

jed

!!Акция!!

Alien_Rage

RePack

fifa19

RePack

Assassins Creed: Odyssey

RePack

NEED FOR SPEED™ PAYBACK

4 сезон

9 сезон

Бесстыжие 9 сезон

Все сериалы

все сериалы на PB.wtf

RePack

FAR CRY 5
  

По законам военного времени / Сезон: 2 / Серии: 1-8 из 8 (Максим Мехеда) [2018, Военный, драма, история, SATRip] pb.wtf

По законам военного времени через торрент pb.wtf

Размер: 5.16 GB | Добавлен: 2 года 5 мес. назад | Торрент скачан:214 раз
Скачать  

05-05-2018 12:21 По законам военного времени Скачать торрент  

По законам военного времениГод выпуска: 2018
Страна: Россия, Украина
Жанр: Военный, драма, история
Продолжительность: ~ 00:48:00
Субтитры: отсутствуют

Режиссер: Максим Мехеда



В ролях:

Екатерина Климова, Евгений Воловенко, Максим Дрозд, Сергей Деньга, Алексей Шутов, Екатерина Соломатина, Павел Стонт, Дмитрий Сарансков, Светлана Зельбет, Андрей Клименков, Станислав Боклан, Виктория Литвиненко-Ясиновская, Анатолий Зиновенко, Александр Панкратов-Чёрный

Описание:

Осень 1941 года. Чудом вырвавшиеся из киевского котла, следователи военной прокуратуры Рокотов, Мирский и Елагина прибывают в Харьков, где уже полным ходом идет эвакуация. У них на руках важные сведения о деятельности немецкой шпионской организации, которые нужно срочно передать в центр. Но неожиданный приказ руководства вынуждает их задержаться в Харькове. Ведь вместе с эвакуируемыми предприятиями, под видом беженцев, на восток движутся группы немецких диверсантов, цель которых – диверсии и саботажи на военных заводах, расположенных на Урале и в Западной Сибири. Пытаясь раскрыть каналы переправки лазутчиков в советский тыл, Рокотов с Елагиной узнают, что действующая в Харькове организация напрямую связана с киевской группой, раскрытой ими за несколько часов до сдачи города. А куратор обеих этих группировок занимает высокий пост в Главной военной прокуратуре в Москве.

Качество: SATRip
Формат: AVI

Видео: 720x400 at 25.000 fps, XviD, ~1600 kbps avg
Аудио: Russian: 48 kHz, MP3, 2/0 (L,R) ch, ~192 kbps avg
скриншот   скриншот   скриншот   скриншот  

Общее
Полное имя : F:\Po.zakonam.voennogo.vremeni.S02.SATRip.25Kuzmich\Po.zakonam.voennogo.vremeni.s02.e01.XviD.SATRip.25Kuzmich.avi
Формат : AVI
Формат/Информация : Audio Video Interleave
Размер файла : 686 Мбайт
Продолжительность : 51 м. 46 с.
Общий поток : 1852 Кбит/сек
Программа кодирования : VirtualDubMod 1.5.10.3 | www.virtualdub-fr.org || (build 2550/release)
Библиотека кодирования : VirtualDubMod build 2550/release

Видео
Идентификатор : 0
Формат : MPEG-4 Visual
Профиль формата : Advanced Simple@L5
Параметр BVOP формата : 1
Параметр QPel формата : Нет
Параметр GMC формата : Без точки перехода
Параметр матрицы формата : Выборочная
Идентификатор кодека : XVID
Идентификатор кодека/Подсказка : XviD
Продолжительность : 51 м. 46 с.
Битрейт : 1650 Кбит/сек
Ширина : 720 пикселей
Высота : 400 пикселей
Соотношение сторон : 16:9
Частота кадров : 25,000 кадров/сек
Цветовое пространство : YUV
Субдискретизация насыщенности : 4:2:0
Битовая глубина : 8 бит
Тип развёртки : Прогрессивная
Метод сжатия : С потерями
Бит/(Пиксели*Кадры) : 0.229
Размер потока : 611 Мбайт (89%)
Библиотека кодирования : XviD 1.2.1 (UTC 2008-12-04)

Аудио
Идентификатор : 1
Формат : MPEG Audio
Версия формата : Version 1
Профиль формата : Layer 3
Режим : Joint stereo
Расширение режима : MS Stereo
Идентификатор кодека : 55
Идентификатор кодека/Подсказка : MP3
Продолжительность : 51 м. 46 с.
Вид битрейта : Постоянный
Битрейт : 192 Кбит/сек
Каналы : 2 канала
Частота : 48,0 КГц
Метод сжатия : С потерями
Размер потока : 71,1 Мбайт (10%)
Выравнивание : Соединение по промежуткам
Продолжительность промежутка : 40 мс. (1,00 видеокадр)
Время предзагрузки промежутка : 504 мс.
Библиотека кодирования : LAME3.99r
Настройки программы : -m j -V 4 -q 2 -lowpass 18.6 -b 192

Внимание! Раздача ведётся путём добавления новых серий; при каждом добавлении создаётся новый торрент. Чтобы начать докачку новой серии, пользователям необходимо сделать следующее:
(1) остановить скачивание,
(2) удалить старый торрент у себя из клиента (старые серии удалять не надо),
(3) скачать новый торрент и запустить его у себя в клиенте вместо старого, при этом указать клиенту путь в старую папку куда и должно происходить скачивание новых серий.
Ваш клиент при этом должен произвести хеширование (проверку) старой папки (если не производит сам - помогите ему сделать это), и будет докачивать только те серии которых у вас ещё нет. Старые серии при этом не удаляются, а продолжают раздаваться!
Eсли вы уже удалили старые серии, то предотвратить повторную закачку старых серий можно, отжав галочку в соответствующих местах при запуске нового торрента. По возможности, желательно не удалять старые серии как можно дольше чтобы релизёр не столько продолжал раздавать старые серии, а смог сконцентрироваться на новых.
pb.wtf



Скачать По законам военного времени через торрент http://i4.imageban.ru/out/2018/05/05/f8a1bb59677e7924f0533e02730e990d.jpg Скачать фильм По законам военного времени через торрент бесплантно в хорошем качестве Описание: Осень 1941 года. Чудом вырвавшиеся из киевского котла, следователи военной прокуратуры Рокотов, Мирский и Елагина прибывают в ... 9.7 10 29
Info! Серебряная раздача, засчитывается только 50% скачанного.
Торрент: Зарегистрирован [2018-05-08 14:52] · скачан: 214 раз
Статус: √ проверено
Размер: 5.16 GB
Как cкачать? Как скачать По законам военного времени через торрент | qTorrent

% Раздел Тема Автор DL S | L
Наши сериалы [ 6.14 GB ] По законам военного времени / Сезон: 2 / Серии: 1-8 из 8 [2018 Военный история HDTVRip-AVC] bober100 Скачать
1 | 0
Наши сериалы [ 9.37 GB ] По законам военного времени / Сезон: 2 / Серии: 1-8 из 8 [2018 Военный история WEB-DL 720p] bober100 Скачать
1 | 0
Наши сериалы [ 5.08 GB ] По законам военного времени / Сезон: 2 / Серии: 1-8 из 8 [2018 Военный история WEB-DLRip] bober100 Скачать
1 | 0
Наши сериалы [ 10.33 GB ] По законам военного времени / Сезон: 2 / Серии: 1-8 из 8 [2018 Военный история HDTVRip 720p] bober100 Скачать
1 | 0
Наши сериалы [ 16.6 GB ] По законам военного времени / Сезон: 2 / Серии: 1-8 из 8 [2018 Военный история HDTV 1080i] bober100 Скачать
1 | 0
Наши сериалы [ 5.3 GB ] По законам военного времени / Сезон: 2 / Серии: 1-8 из 8 [2018военный SATRip-AVC] aleksan55 Скачать
2 | 0
Наши сериалы [ 5.6 GB ] По законам военного времени / Сезон: 2 / Серии: 1-8 из 8 [2018 Военный история HDTVRip] bober100 Скачать
1 | 0

28-11-2019 20:33  

Отключить всю рекламу на сайте

    Дорогой пользователь! Огромная просьба, поблагодарите релизера, оцените раздачу и оставьте свои комментарий, если Вы скачали По законам военного времени через торрент бесплатно! Внесите свою лепту в развитие PiratBit!
    Комментировать посты могут только пользователи прошедшие не сложную регистрацию
    Показать сообщения:    

    По законам военного времени через торрент
    Скачать бесплатно По законам военного времени
    По законам военного времени скачать торрент
    По законам военного времени смотреть онлайн
    Cкачать фильм По законам военного времени бесплатно
    По законам военного времени скачать торрент в хорошем качестве
    По законам военного времени смотреть онлайн бесплатно в хорошем качестве


    Вы не можете начинать темы
    Вы не можете отвечать на сообщения
    Вы не можете редактировать свои сообщения
    Вы не можете удалять свои сообщения
    Вы не можете голосовать в опросах
    Вы не можете прикреплять файлы к сообщениям
    Вы можете скачивать файлы