>

7.4

iTunes

7.4

2 сезон

9.4

1 сезон

1

7.4

2 сезон

7.2

iTunes

6.0

MVO

13

6.1

iTunes

8.3

Пиратка

30

ULTIMATE

pack

9.9

Лицензия

ВАЖНО

ИГРА 18+

pack

7.3

RePack

MK11

7.7

RePack

jed

7.8

RePack

fifa19

8.5

RePack

RDR2

RePack

NEED FOR SPEED™ PAYBACK

1 сезон

9 сезон

Бесстыжие 9 сезон

Все сериалы

все сериалы на PB.wtf

RePack

FAR CRY 5

Anonymous, доброй ночи, мы катастрофически не успеваем собрать деньги на оплату серверов, помогите нам пожалуйста 5,10,15р., для нас важна любая помощь . В качестве благодарности мы отключим Вам всю рекламу на сайте (укажите свой ник в строку Ваше имя)!

×
  
Magnet ссылка

Горячая жевательная резинка 3 / Shifshuf Naim (Боаз Дэвидсон) [1981 г., Комедия, DVDRip-AVC, Авторский (А.Гаврилов), Профессиональный (многоголосый)] от ExKinoRay pb.wtf

Горячая жевательная резинка 3 через торрент pb.wtf

Размер: 2.18 GB | Добавлен: 3 года 8 мес. назад | Торрент скачан:85 раз
Смотреть онлайн Горячая жевательная резинка 3 | Скачать    Ребята, помогите собрать деньги на оплату серверов!!!

05-05-2018 17:23 Горячая жевательная резинка 3 Скачать торрент  

Горячая жевательная резинка 3 / Shifshuf Naim
Год выпуска: 1981
Страна: Израиль
Жанр: Комедия
Продолжительность: 01:30:38
Перевод: Авторский (одноголосый)

Режиссер: Боаз Дэвидсон

Премьера в мире: 7 апреля 1981

rating

В ролях: Ифтах Катцур, Захи Ной, Джонатан Сегалл, Дебора Кейдар, Рэйчел Стейнер, Менаше Варшавски, Ариела Рабинович, Орна Даган

Описание: Один из самых известных фильмов этого цикла. Это именно тот фильм, который мы смотрели еще в СССР на затертых видеокассетах.
Подглядывания за девушками в раздевалках, танцы — шманцы — обжиманцы, разговоры про секс и поиски «опытных» женщин — на что еще взрослеющим мальчикам тратить свое время?!
Лента рассказывает о ребятах из ушедшей в прошлое эпохи 50-х годов, а потому все время звучат за кадром песни и мелодии популярных Билла Хэйли и Фрэнки Авалона, Литтл Ричарда и Чака Берри, Ритчи Валенса и Дуэйна Эдди.

Доп. информация: Перевод: Авторский одноголосый (А.Гаврилов), профессиональный многоголосый (ТНТ)

Качество: DVDRip-AVC
Формат: MKV
Видео кодек: MPEG4
Аудио кодек: AC3
Видео: MPEG-4 AVC, 3000 Кбит/с, 682x572@968x572, 25 кадров/сек
Аудио#1: Русский (AC3, 2 ch, 224 Кбит/с, 48 КГц) - А.Гаврилов
Аудио#2: Русский (AC3, 2 ch, 224 Кбит/с, 48 КГц) - ТНТ
Релиз от:




raw [info]: 682x572p 64:45 @ 25/1 fps (cfr)
x264 [info]: using SAR=64/45
x264 [info]: using cpu capabilities: MMX2 SSE2Fast LZCNT
x264 [info]: profile High, level 4.1
x264 [info]: frame I:852 Avg QP:17.92 size: 72628
x264 [info]: frame P:27468 Avg QP:20.36 size: 30935
x264 [info]: frame B:107640 Avg QP:22.38 size: 10470
x264 [info]: consecutive B-frames: 0.9% 0.7% 4.3% 24.4% 17.7% 48.0% 2.6% 0.4% 0.1% 0.0% 0.0% 0.0% 0.0% 0.0% 0.0% 0.0% 0.8%
-----
Общее
Уникальный идентификатор : 187834708795585106569333900444345368285 (0x8D4FA626993BA9E2B4349532FC10FEDD)
Полное имя : D:\ExKinoRay\Bubblegum3.1981.DVDRip-AVC.ExKinoRay.mkv
Формат : Matroska
Версия формата : Version 2
Размер файла : 2,18 Гбайт
Продолжительность : 1 ч. 30 м.
Общий поток : 3449 Кбит/сек
Дата кодирования : UTC 2018-05-05 14:25:15
Программа кодирования : mkvmerge v7.8.0 ('River Man') 32bit built on Apr 3 2015 12:11:22
Библиотека кодирования : libebml v1.3.1 + libmatroska v1.4.2

Видео
Идентификатор : 1
Формат : AVC
Формат/Информация : Advanced Video Codec
Профиль формата : High@L4.1
Параметр CABAC формата : Да
Параметр ReFrames формата : 14 кадров
Идентификатор кодека : V_MPEG4/ISO/AVC
Продолжительность : 1 ч. 30 м.
Битрейт : 3000 Кбит/сек
Ширина : 682 пикселя
Высота : 572 пикселя
Соотношение сторон : 5:3
Соотношение сторон в оригинале : 5:3
Режим частоты кадров : Постоянный
Частота кадров : 25,000 кадров/сек
Цветовое пространство : YUV
Субдискретизация насыщенности : 4:2:0
Битовая глубина : 8 бит
Тип развёртки : Прогрессивная
Бит/(Пиксели*Кадры) : 0.308
Размер потока : 1,86 Гбайт (85%)
Библиотека кодирования : x264 core 148 r2638 7599210
Настройки программы : cabac=1 / ref=14 / deblock=1:-2:-2 / analyse=0x3:0x133 / me=umh / subme=10 / psy=1 / psy_rd=1.05:0.15 / mixed_ref=1 / me_range=32 / chroma_me=1 / trellis=2 / 8x8dct=1 / cqm=0 / deadzone=21,11 / fast_pskip=0 / chroma_qp_offset=-3 / threads=4 / lookahead_threads=1 / sliced_threads=0 / nr=0 / decimate=0 / interlaced=0 / bluray_compat=0 / constrained_intra=0 / bframes=16 / b_pyramid=2 / b_adapt=2 / b_bias=0 / direct=3 / weightb=1 / open_gop=0 / weightp=2 / keyint=250 / keyint_min=25 / scenecut=40 / intra_refresh=0 / rc=2pass / mbtree=0 / bitrate=3000 / ratetol=1.0 / qcomp=0.60 / qpmin=0 / qpmax=69 / qpstep=4 / cplxblur=20.0 / qblur=0.5 / ip_ratio=1.40 / pb_ratio=1.30 / aq=1:1.00
Язык : English
Default : Да
Forced : Нет
Цветовой диапазон : Limited
Основные цвета : BT.601 NTSC
Характеристики трансфера : BT.601
Коэффициенты матрицы : BT.601

Аудио #1
Идентификатор : 2
Формат : AC-3
Формат/Информация : Audio Coding 3
Профиль формата : Dolby Digital
Расширение режима : CM (complete main)
Параметр Endianness формата : Big
Идентификатор кодека : A_AC3
Продолжительность : 1 ч. 30 м.
Вид битрейта : Постоянный
Битрейт : 224 Кбит/сек
Каналы : 2 канала
Расположение каналов : Front: L R
Частота : 48,0 КГц
Частота кадров : 31,250 кадров/сек (1536 spf)
Метод сжатия : С потерями
Размер потока : 145 Мбайт (6%)
Заголовок : А.Гаврилов
Язык : Russian
Default : Да
Forced : Нет

Аудио #2
Идентификатор : 3
Формат : AC-3
Формат/Информация : Audio Coding 3
Профиль формата : Dolby Digital
Расширение режима : CM (complete main)
Параметр Endianness формата : Big
Идентификатор кодека : A_AC3
Продолжительность : 1 ч. 30 м.
Вид битрейта : Постоянный
Битрейт : 224 Кбит/сек
Каналы : 2 канала
Расположение каналов : Front: L R
Частота : 48,0 КГц
Частота кадров : 31,250 кадров/сек (1536 spf)
Метод сжатия : С потерями
Размер потока : 145 Мбайт (6%)
Заголовок : ТНТ
Язык : Russian
Default : Нет
Forced : Нет

pb.wtf



Скачать Горячая жевательная резинка 3 через торрент http://d.radikal.ru/d31/1805/43/5fa81be055c7.jpg Скачать, смотреть онлайн Горячая жевательная резинка 3 бесплантно в хорошем качестве Описание: Один из самых известных фильмов этого цикла. Это именно тот фильм, который мы смотрели еще в СССР на затертых ... 10 10 3
Info! Золотая раздача, скачанное не засчитывается.
Торрент: Зарегистрирован [2018-05-05 17:23] · скачан: 85 раз
Статус: √ проверено
Размер: 2.18 GB
Как cкачать? Как скачать Горячая жевательная резинка 3 через торрент | UTorrent

28-11-2019 20:33  

Отключить всю рекламу на сайте

05-05-2018 19:50 Горячая жевательная резинка 3 Скачать торрент  

Топик был перенесен из форума Оформление раздач (Кино, Видео и ТВ) в форум Фильмы с авторской озвучкой


-Lexx-pb.wtf



05-05-2018 23:42 Горячая жевательная резинка 3 Скачать торрент  

Супер! Остальные части будут в приличном качестве?pb.wtf



06-05-2018 06:49 Горячая жевательная резинка 3 Скачать торрент  

первую серию можно в хорошем качестве?pb.wtf



    Дорогой пользователь! Огромная просьба, поблагодарите релизера, оцените раздачу и оставьте свои комментарий, если Вы скачали Горячая жевательная резинка 3 через торрент бесплатно!
    Комментировать посты могут только пользователи прошедшие не сложную регистрацию
    Показать сообщения:    

    Горячая жевательная резинка 3 через торрент
    Скачать бесплатно Горячая жевательная резинка 3
    Горячая жевательная резинка 3 скачать торрент
    Горячая жевательная резинка 3 смотреть онлайн
    Cкачать фильм Горячая жевательная резинка 3 бесплатно
    Горячая жевательная резинка 3 скачать торрент в хорошем качестве
    Горячая жевательная резинка 3 смотреть онлайн бесплатно в хорошем качестве


    Вы не можете начинать темы
    Вы не можете отвечать на сообщения
    Вы не можете редактировать свои сообщения
    Вы не можете удалять свои сообщения
    Вы не можете голосовать в опросах
    Вы не можете прикреплять файлы к сообщениям
    Вы можете скачивать файлы