Ссылка на приватное зеркало нашего сайта всего за 1$. Внимание количество ограничено!!!

2 сезон

iTunes

1 сезон

1

iTunes

iTunes

iTunes

1 сезон

RePack

30

ИГРА 18+

pack

ВАЖНО

!!Акция!!

Alien_RageХит недели

RePack

MK11
pack

Забери бонус

RePack

jed

!!Акция!!

Alien_Rage

RePack

fifa19

RePack

Assassins Creed: Odyssey

RePack

NEED FOR SPEED™ PAYBACK

4 сезон

9 сезон

Бесстыжие 9 сезон

Все сериалы

все сериалы на PB.wtf

RePack

FAR CRY 5
  

На глубине / Сезон: 1 / Серии: 1-16 из 16 (Ярослав Мочалов) [2015, криминал, HDTVRip-AVC] pb.wtf

На глубине через торрент pb.wtf

Размер: 10.95 GB | Добавлен: 2 года 5 мес. назад | Торрент скачан:38 раз
Скачать  

06-05-2018 10:28 На глубине Скачать торрент  

На глубине
Год выпуска: 2015
Страна: Россия
Жанр: криминал
Продолжительность: ~ 00:48:00
Субтитры: отсутствуют

Режиссер: Ярослав Мочалов



В ролях:

Алексей Гуськов, Дмитрий Ратомский, Михаил Бабичев, Полина Сидихина, Виктория Герасимова, Василий Бочкарев, Олег Тактаров, Игорь Савочкин, Сергей Астахов, Юрий Сафаров

Описание:

Одна из специальных групп полицейских под прикрытием занимается поиском особо опасных преступников. Возглавляет группу харизматичный майор Жур (Алексей Гуськов). Характер у него строптивый, начальство его терпеть не может за прямоту и зачастую неординарные действия по обезвреживанию бандитов. К себе в команду майор взял троих: Селима (Михаил Бабичев), Дена Крылова (Дмитрий Ратомский) — и Алову (Полина Сидихина), которую буквально «вытащил из-под земли» — раньше она работала в УВД при метрополитене.
Отряд должен будет выйти на торговцев оружием, для чего Селиму придется сыграть роль одного из заказчиков. Для успешного расследования дела о похищении людей самому Журу нужно будет «подставиться», чтобы попасть в плен к банде, которая удерживает заложника. Нелегкая роль в одной из операций по поиску наркоторговцев ждет и Алову, до работы в органах сталкивавшуюся с наркозависимостью. А внедрение в банду торговцев алмазами станет непростым испытанием для Дэна из-за дружеских отношений с одним из преступников, переступить через которые окажется не так просто.
Ежедневно сотрудники отдела будут вставать перед выбором — правда и ложь, добро и зло. Часто героям фильма предстоит воевать не только с нарушителями закона, но и с самими собой… Кто выйдет победителем из этих противостояний, смотрите в новом сериале «На глубине» на НТВ!

Качество: HDTVRip-AVC
Формат: MKV

Видео: MPEG-4 AVC, ~ 2000 Кбит/с, 1024x576, 25 кадр/с
Аудио: AC3, 2 ch, 192 Кбит/с
скриншот   скриншот   скриншот   скриншот   скриншот   скриншот  

Общее
Уникальный идентификатор : 199097480738754127857010467496307304798 (0x95C8C7AE1FEF44B8BEE983A1B839A95E)
Полное имя : F:\Na.glubine.2015.HDTVRip.AVC.Files-x\01.Na.glubine.2015.HDTVRip.(AVC).by.Серый1779.Files-x.mkv
Формат : Matroska
Версия формата : Version 2
Размер файла : 702 Мбайт
Продолжительность : 44 м. 44 с.
Общий поток : 2194 Кбит/сек
Дата кодирования : UTC 2016-01-26 02:34:36
Программа кодирования : mkvmerge v6.1.0 ('Old Devil') built on Mar 4 2013 09:10:42
Библиотека кодирования : libebml v1.3.0 + libmatroska v1.4.0

Видео
Идентификатор : 1
Формат : AVC
Формат/Информация : Advanced Video Codec
Профиль формата : High@L4.1
Параметр CABAC формата : Да
Параметр RefFrames формата : 9 кадров
Идентификатор кодека : V_MPEG4/ISO/AVC
Продолжительность : 44 м. 44 с.
Битрейт : 2000 Кбит/сек
Ширина : 1024 пикселя
Высота : 576 пикселей
Соотношение сторон : 16:9
Режим частоты кадров : Постоянный
Частота кадров : 25,000 кадров/сек
Цветовое пространство : YUV
Субдискретизация насыщенности : 4:2:0
Битовая глубина : 8 бит
Тип развёртки : Прогрессивная
Бит/(Пиксели*Кадры) : 0.136
Размер потока : 627 Мбайт (89%)
Библиотека кодирования : x264 core 130 r2273 b3065e6
Настройки программы : cabac=1 / ref=9 / deblock=1:-2:-1 / analyse=0x3:0x133 / me=umh / subme=9 / psy=1 / psy_rd=1.00:0.15 / mixed_ref=1 / me_range=32 / chroma_me=1 / trellis=2 / 8x8dct=1 / cqm=0 / deadzone=21,11 / fast_pskip=0 / chroma_qp_offset=-3 / threads=6 / lookahead_threads=1 / sliced_threads=0 / nr=0 / decimate=1 / interlaced=0 / bluray_compat=0 / constrained_intra=0 / bframes=9 / b_pyramid=2 / b_adapt=2 / b_bias=0 / direct=1 / weightb=1 / open_gop=0 / weightp=2 / keyint=250 / keyint_min=25 / scenecut=40 / intra_refresh=0 / rc=2pass / mbtree=0 / bitrate=2000 / ratetol=1.0 / qcomp=0.60 / qpmin=0 / qpmax=69 / qpstep=4 / cplxblur=20.0 / qblur=0.5 / ip_ratio=1.40 / pb_ratio=1.30 / aq=2:1.00
Default : Да
Forced : Нет
Цветовой диапазон : Limited
Основные цвета : BT.709
Характеристики трансфера : BT.709
Коэффициенты матрицы : BT.709

Аудио
Идентификатор : 2
Формат : AC-3
Формат/Информация : Audio Coding 3
Расширение режима : CM (complete main)
Параметр Endianness формата : Big
Идентификатор кодека : A_AC3
Продолжительность : 44 м. 44 с.
Вид битрейта : Постоянный
Битрейт : 192 Кбит/сек
Каналы : 2 канала
Расположение каналов : Front: L R
Частота : 48,0 КГц
Частота кадров : 31,250 кадров/сек (1536 spf)
Метод сжатия : С потерями
Размер потока : 61,4 Мбайт (9%)
Default : Да
Forced : Нет

pb.wtf



Скачать На глубине через торрент http://i66.fastpic.ru/big/2016/0125/96/8355f92a7dd171d8267040a64cab4096.jpg Скачать фильм На глубине через торрент бесплантно в хорошем качестве Описание: Одна из специальных групп полицейских под прикрытием занимается поиском особо опасных преступников. Возглавляет группу ... 10 10 4
Торрент: Зарегистрирован [2018-05-06 10:28] · скачан: 38 раз
Статус: √ проверено
Размер: 10.95 GB
Как cкачать? Как скачать На глубине через торрент | qTorrent

% Раздел Тема Автор DL S | L
Наши сериалы [ 21.21 GB ] На глубине / Сезон: 1 / Серии: 1-16 из 16 [2015 WEB-DL 1080p] bober100 Скачать
1 | 0
Наши сериалы [ 8.6 GB ] На глубине / Сезон: 1 / Серии: 1-16 из 16 [2015 WEB-DLRip] bober100 Скачать
1 | 0
Наши сериалы [ 42.4 GB ] На глубине / Сезон: 1 / Серии: 1-16 из 16 [2015 HDTV 1080i] bober100 Скачать
1 | 0
Наши сериалы [ 24.89 GB ] На глубине / Сезон: 1 / Серии: 1-16 из 16 [2015 HDTVRip 720p] bober100 Скачать
1 | 0
Наши сериалы [ 8.6 GB ] На глубине / Сезон: 1 / Серии: 1-16 из 16 [2015 HDTVRip] bober100 Скачать
1 | 0
Наши сериалы [ 9.6 GB ] На глубине / Сезон: 1 / Серии: 1-16 из 16 [2015 SATRip] bober100 Скачать
1 | 0

28-11-2019 20:33  

Отключить всю рекламу на сайте

    Дорогой пользователь! Огромная просьба, поблагодарите релизера, оцените раздачу и оставьте свои комментарий, если Вы скачали На глубине через торрент бесплатно! Внесите свою лепту в развитие PiratBit!
    Комментировать посты могут только пользователи прошедшие не сложную регистрацию
    Показать сообщения:    

    На глубине через торрент
    Скачать бесплатно На глубине
    На глубине скачать торрент
    На глубине смотреть онлайн
    Cкачать фильм На глубине бесплатно
    На глубине скачать торрент в хорошем качестве
    На глубине смотреть онлайн бесплатно в хорошем качестве


    Вы не можете начинать темы
    Вы не можете отвечать на сообщения
    Вы не можете редактировать свои сообщения
    Вы не можете удалять свои сообщения
    Вы не можете голосовать в опросах
    Вы не можете прикреплять файлы к сообщениям
    Вы можете скачивать файлы