>

7.4

iTunes

7.4

2 сезон

9.4

1 сезон

1

7.4

2 сезон

7.2

iTunes

6.0

MVO

13

6.1

iTunes

8.3

Пиратка

30

ULTIMATE

pack

9.9

Лицензия

ВАЖНО

ИГРА 18+

pack

7.3

RePack

MK11

7.7

RePack

jed

7.8

RePack

fifa19

8.5

RePack

RDR2

RePack

NEED FOR SPEED™ PAYBACK

1 сезон

9 сезон

Бесстыжие 9 сезон

Все сериалы

все сериалы на PB.wtf

RePack

FAR CRY 5

Anonymous, доброй ночи, мы катастрофически не успеваем собрать деньги на оплату серверов, помогите нам пожалуйста 5,10,15р., для нас важна любая помощь . В качестве благодарности мы отключим Вам всю рекламу на сайте (укажите свой ник в строку Ваше имя)!

×
  
Magnet ссылка

Охота на воров / Den of Thieves (Кристиан Гьюдгэст) [2018, боевик, триллер, драма, криминал, детектив, приключения, BDRip-AVC] AVO [Яроцкий] (UNRATED) - ExKinoRay pb.wtf

Охота на воров через торрент pb.wtf

Размер: 3 GB | Добавлен: 3 года 8 мес. назад | Торрент скачан:197 раз
Смотреть онлайн Охота на воров | Скачать    Ребята, помогите собрать деньги на оплату серверов!!!

06-05-2018 16:14 Охота на воров Скачать торрент  

Информация о фильме
Название: Охота на воров
Оригинальное название: Den of Thieves
Год выпуска: 2018
Жанр: Боевик, триллер, драма, криминал, детектив
Страна: США
Студия: Diamond Film Productions, G-BASE, Tucker Tooley Entertainment
Продолжительность: 02:28:49
Перевод: Авторский (одноголосый закадровый) Михаил Яроцкий

Присутствует ненормативная лексика
Режиссер: Кристиан Гьюдгэст
В ролях: Джерард Батлер, Джордан Бриджес, Пабло Шрайбер, Ивэн Джонс, О`Ши Джексон мл., 50 Cent, Соня Балморес, Эрик Браден, Брайан Ван Холт, Морис Комт

Описание:
Большой Ник — начальник элитного подразделения полиции Лос-Анджелеса — ежедневно доказывает, что его команда более крутая, чем те, на кого они охотятся. Когда коп узнает, что легендарный и неуловимый вор планирует дерзкое ограбление Федерального резервного банка США, то он решает помешать этому любым способом. И играть по правилам он не привык.

rating

Файл
Формат: MKV
Качество: BDRip-AVC
Видео: MPEG-4 AVC, 1024x426 (2.40:1), 23.976 fps, ~ 1988 kbps avg, 0.190 bit/pixel
Аудио: 48 kHz, AC3, 5.1, 448 Kbps | RUS |
Аудио: 48 kHz, AC3, 5.1, 448 Kbps | ENG |
Субтитры: Английские

Сохранены оригинальные чаптеры как на Blu-Ray.
General
Unique ID : 235120513043382963950361719671743307276 (0xB0E2904C163FA73F928D8BBF157FDE0C)
Complete name : D:\Den_of_Thieves.2018.AVO.UNRATED.BDRip.AVC.ExKinoRay.mkv
Format : Matroska
Format version : Version 2
File size : 3.00 GiB
Duration : 2 h 28 min
Overall bit rate : 2 884 kb/s
Movie name : Den of Thieves 2018 from ExKinoRay
Encoded date : UTC 2018-05-06 14:36:22
Writing application : mkvmerge v5.6.0 ('Kenya Kane') built on May 27 2012 16:44:04
Writing library : libebml v1.2.3 + libmatroska v1.3.0

Video
ID : 1
Format : AVC
Format/Info : Advanced Video Codec
Format profile : High@L4.1
Format settings, CABAC : Yes
Format settings, ReFrames : 11 frames
Codec ID : V_MPEG4/ISO/AVC
Duration : 2 h 28 min
Bit rate : 1 988 kb/s
Width : 1 024 pixels
Height : 426 pixels
Display aspect ratio : 2.40:1
Frame rate mode : Constant
Frame rate : 23.976 (23976/1000) FPS
Color space : YUV
Chroma subsampling : 4:2:0
Bit depth : 8 bits
Scan type : Progressive
Bits/(Pixel*Frame) : 0.190
Stream size : 2.01 GiB (67%)
Title : Enigma
Writing library : x264 core 152 r2851 ba24899
Encoding settings : cabac=1 / ref=11 / deblock=1:-2:-2 / analyse=0x3:0x113 / me=umh / subme=10 / psy=1 / psy_rd=1.05:0.10 / mixed_ref=1 / me_range=32 / chroma_me=1 / trellis=2 / 8x8dct=1 / cqm=0 / deadzone=21,11 / fast_pskip=0 / chroma_qp_offset=-3 / threads=12 / lookahead_threads=3 / sliced_threads=0 / nr=0 / decimate=0 / interlaced=0 / bluray_compat=0 / constrained_intra=0 / bframes=14 / b_pyramid=2 / b_adapt=2 / b_bias=0 / direct=3 / weightb=1 / open_gop=0 / weightp=2 / keyint=240 / keyint_min=23 / scenecut=40 / intra_refresh=0 / rc_lookahead=40 / rc=2pass / mbtree=0 / bitrate=1988 / ratetol=1.0 / qcomp=0.60 / qpmin=0 / qpmax=51 / qpstep=4 / cplxblur=20.0 / qblur=0.5 / vbv_maxrate=50000 / vbv_bufsize=62500 / nal_hrd=none / filler=0 / ip_ratio=1.40 / pb_ratio=1.30 / aq=1:0.90
Language : English
Default : Yes
Forced : No
Color range : Limited
Color primaries : BT.709
Transfer characteristics : BT.709
Matrix coefficients : BT.709

Audio #1
ID : 2
Format : AC-3
Format/Info : Audio Coding 3
Mode extension : CM (complete main)
Format settings, Endianness : Big
Codec ID : A_AC3
Duration : 2 h 28 min
Bit rate mode : Constant
Bit rate : 448 kb/s
Channel(s) : 6 channels
Channel positions : Front: L C R, Side: L R, LFE
Sampling rate : 48.0 kHz
Frame rate : 31.250 FPS (1536 spf)
Compression mode : Lossy
Stream size : 477 MiB (16%)
Title : AVO
Language : Russian
Default : Yes
Forced : No

Audio #2
ID : 3
Format : AC-3
Format/Info : Audio Coding 3
Mode extension : CM (complete main)
Format settings, Endianness : Big
Codec ID : A_AC3
Duration : 2 h 28 min
Bit rate mode : Constant
Bit rate : 448 kb/s
Channel(s) : 6 channels
Channel positions : Front: L C R, Side: L R, LFE
Sampling rate : 48.0 kHz
Frame rate : 31.250 FPS (1536 spf)
Compression mode : Lossy
Stream size : 477 MiB (16%)
Language : English
Default : No
Forced : No

Text
ID : 4
Format : UTF-8
Codec ID : S_TEXT/UTF8
Codec ID/Info : UTF-8 Plain Text
Language : English
Default : No
Forced : No

Menu
00:00:00.000 : en:Chapter 01
00:09:38.869 : en:Chapter 02
00:17:31.967 : en:Chapter 03
00:24:03.733 : en:Chapter 04
00:30:30.411 : en:Chapter 05
00:43:48.083 : en:Chapter 06
00:49:54.992 : en:Chapter 07
00:58:58.284 : en:Chapter 08
01:05:05.109 : en:Chapter 09
01:10:42.780 : en:Chapter 10
01:16:21.368 : en:Chapter 11
01:25:11.481 : en:Chapter 12
01:29:54.514 : en:Chapter 13
01:35:50.870 : en:Chapter 14
01:40:39.908 : en:Chapter 15
01:50:22.532 : en:Chapter 16
01:58:30.728 : en:Chapter 17
02:04:59.909 : en:Chapter 18
02:14:27.976 : en:Chapter 19
02:22:15.318 : en:Chapter 20
Релиз от:

Автор релиза: pb.wtf



Скачать Охота на воров через торрент https://i104.fastpic.ru/big/2018/0411/7e/4e90552d694fa537ebe1cf6dcabd747e.jpg Скачать, смотреть онлайн Охота на воров бесплантно в хорошем качестве Описание: Большой Ник — начальник элитного подразделения полиции Лос-Анджелеса — ежедневно доказывает, что его команда более крутая, чем ... 8.4 10 8
Info! Золотая раздача, скачанное не засчитывается.
Торрент: Зарегистрирован [2018-05-06 16:14] · скачан: 197 раз
Статус: √ проверено
Размер: 3 GB
Как cкачать? Как скачать Охота на воров через торрент | UTorrent

% Раздел Тема Автор DL S | L
Фильмы 2018 [DVDrip, WEB-DLRip, HDrip] (DUB, MVO) [ 2.16 GB ] Охота на воров / Den of Thieves [2018 BDRip-AVC] - [] - ExKinoRay Enigma2010 Скачать
1 | 0
Фильмы 2018 [DVDrip, WEB-DLRip, HDrip] (DUB, MVO) [ 2.93 GB ] Охота на воров / Den of Thieves [2018 BDRip-AVC] Dub - ExKinoRay Enigma2010 Скачать
1 | 0

28-11-2019 20:33  

Отключить всю рекламу на сайте

12-05-2018 23:27 Охота на воров Скачать торрент  

Законопослушный гражданин добавляет харизмы, а так фильм устойчивый середнячок для боевиков + неожиданная концовка для амерофильма. pb.wtf



    Дорогой пользователь! Огромная просьба, поблагодарите релизера, оцените раздачу и оставьте свои комментарий, если Вы скачали Охота на воров через торрент бесплатно!
    Комментировать посты могут только пользователи прошедшие не сложную регистрацию
    Показать сообщения:    

    Охота на воров через торрент
    Скачать бесплатно Охота на воров
    Охота на воров скачать торрент
    Охота на воров смотреть онлайн
    Cкачать фильм Охота на воров бесплатно
    Охота на воров скачать торрент в хорошем качестве
    Охота на воров смотреть онлайн бесплатно в хорошем качестве


    Вы не можете начинать темы
    Вы не можете отвечать на сообщения
    Вы не можете редактировать свои сообщения
    Вы не можете удалять свои сообщения
    Вы не можете голосовать в опросах
    Вы не можете прикреплять файлы к сообщениям
    Вы можете скачивать файлы