Ссылка на приватное зеркало нашего сайта всего за 1$. Внимание количество ограничено!!!

2 сезон

iTunes

1 сезон

1

iTunes

iTunes

iTunes

1 сезон

RePack

30

ИГРА 18+

pack

ВАЖНО

!!Акция!!

Alien_RageХит недели

RePack

MK11
pack

Забери бонус

RePack

jed

!!Акция!!

Alien_Rage

RePack

fifa19

RePack

Assassins Creed: Odyssey

RePack

NEED FOR SPEED™ PAYBACK

4 сезон

9 сезон

Бесстыжие 9 сезон

Все сериалы

все сериалы на PB.wtf

RePack

FAR CRY 5
  

Сучьи войны / Сучья война / Сезон: 1 / Серии: 1-8 из 8 (Николай Борц) [2014, Военный, драма, исторический, WEB-DLRip] pb.wtf

Сучьи войны через торрент pb.wtf

Размер: 5.47 GB | Добавлен: 2 года 5 мес. назад | Торрент скачан:255 раз
Скачать  

06-05-2018 16:34 Сучьи войны Скачать торрент  

Сучьи войны / Сучья войнаГод выпуска: 2014
Страна: Россия
Жанр: Военный, драма, исторический
Продолжительность: ~ 00:50:00
Перевод: Не требуется
Субтитры: отсутствуют

Режиссер: Николай Борц



В ролях:

Алексей Демидов, Карина Андоленко, Михаил Пшеничный, Полина Уварова, Василиса Немцова, Алеся Гузько, Агриппина Стеклова, Константин Юшкевич, Андрей Иванов (VI), Янина Исаичкина, Анастасия Привалова, Алика Котова

Описание:

"Сучьей войной" называют безжалостное противостояние между тюремными заключенными которое длилось десять лет - с середины сороковых до середины пятидесятых годов прошлого столетия.Осужденные за уголовные преступления разделились на два противоборствующих лагеря. По одну сторону баррикад находились "воры в законе", которые привыкли жить "по понятиям" и ни при каких обстоятельствах не вступать в переговоры с представителями власти.А с другой стороны были "суки" - заключенные, которые раскаялись в совершении преступления, искренне хотели исправиться. Большинство "сук" во времена Великой Отечественной войны воевали на фронте. Со временем к "сукам" присоединились воры, которые по тем или иным причинам не желали жить "по блатным" законам...

Качество: WEB-DLRip
Формат: AVI

Видео: XviD, ~ 1790 Кбит/с, 720x400
Аудио: AC3, 2 ch, 192 Кбит/с
скриншот   скриншот   скриншот   скриншот  

Общее
Полное имя : F:\Suchja.vojna.2014.WEB-DLRip.ExKinoRay\Suchja.vojna.(01.seriya).2014.WEB-DLRip.ExKinoRay.avi
Формат : AVI
Формат/Информация : Audio Video Interleave
Размер файла : 700 Мбайт
Продолжительность : 49 м. 57 с.
Общий поток : 1960 Кбит/сек
Программа кодирования : VirtualDubMod 1.5.10.2 (build 2540/release)
Библиотека кодирования : VirtualDubMod build 2540/release

Видео
Идентификатор : 0
Формат : MPEG-4 Visual
Профиль формата : Advanced Simple@L5
Параметр BVOP формата : 1
Параметр QPel формата : Нет
Параметр GMC формата : Без точки перехода
Параметр матрицы формата : Выборочная
Идентификатор кодека : XVID
Идентификатор кодека/Подсказка : XviD
Продолжительность : 49 м. 57 с.
Битрейт : 1758 Кбит/сек
Ширина : 720 пикселей
Высота : 400 пикселей
Соотношение сторон : 16:9
Частота кадров : 25,000 кадров/сек
Цветовое пространство : YUV
Субдискретизация насыщенности : 4:2:0
Битовая глубина : 8 бит
Тип развёртки : Прогрессивная
Метод сжатия : С потерями
Бит/(Пиксели*Кадры) : 0.244
Размер потока : 628 Мбайт (90%)
Библиотека кодирования : XviD 1.2.1 (UTC 2008-12-04)

Аудио
Идентификатор : 1
Формат : AC-3
Формат/Информация : Audio Coding 3
Расширение режима : CM (complete main)
Параметр Endianness формата : Big
Идентификатор кодека : 2000
Продолжительность : 49 м. 57 с.
Вид битрейта : Постоянный
Битрейт : 192 Кбит/сек
Каналы : 2 канала
Расположение каналов : Front: L R
Частота : 48,0 КГц
Частота кадров : 31,250 кадров/сек (1536 spf)
Метод сжатия : С потерями
Размер потока : 68,6 Мбайт (10%)
Выравнивание : Разделение по промежуткам
Продолжительность промежутка : 40 мс. (1,00 видеокадр)
Время предзагрузки промежутка : 500 мс.

pb.wtf



Скачать Сучьи войны через торрент http://pic1.kartinco.top/images/11/xwbgw.jpg Скачать фильм Сучьи войны через торрент бесплантно в хорошем качестве Описание: "Сучьей войной" называют безжалостное противостояние между тюремными заключенными которое длилось десять лет - с середины ... 9.8 10 12
Торрент: Зарегистрирован [2018-05-06 16:34] · скачан: 255 раз
Статус: √ проверено
Размер: 5.47 GB
Как cкачать? Как скачать Сучьи войны через торрент | qTorrent

% Раздел Тема Автор DL S | L
Наши сериалы [ 13.89 GB ] Сучьи войны / Сучья война / Сезон: 1 / Серии: 1-8 из 8 [2014 Военный исторический WEB-DL 1080p] bober100 Скачать
1 | 0
Наши сериалы [ 4.45 GB ] Сучья война / Сезон: 1 / Серии 1-8 из 8 [2014 Россия Военный исторический SATRip] GEKADOL Скачать
1 | 0

28-11-2019 20:33  

Отключить всю рекламу на сайте

    Дорогой пользователь! Огромная просьба, поблагодарите релизера, оцените раздачу и оставьте свои комментарий, если Вы скачали Сучьи войны через торрент бесплатно! Внесите свою лепту в развитие PiratBit!
    Комментировать посты могут только пользователи прошедшие не сложную регистрацию
    Показать сообщения:    

    Сучьи войны через торрент
    Скачать бесплатно Сучьи войны
    Сучьи войны скачать торрент
    Сучьи войны смотреть онлайн
    Cкачать фильм Сучьи войны бесплатно
    Сучьи войны скачать торрент в хорошем качестве
    Сучьи войны смотреть онлайн бесплатно в хорошем качестве


    Вы не можете начинать темы
    Вы не можете отвечать на сообщения
    Вы не можете редактировать свои сообщения
    Вы не можете удалять свои сообщения
    Вы не можете голосовать в опросах
    Вы не можете прикреплять файлы к сообщениям
    Вы можете скачивать файлы