Ссылка на приватное зеркало нашего сайта всего за 1$. Внимание количество ограничено!!!

2 сезон

iTunes

1 сезон

1

iTunes

iTunes

iTunes

1 сезон

RePack

30

ИГРА 18+

pack

ВАЖНО

!!Акция!!

Alien_RageХит недели

RePack

MK11
pack

Забери бонус

RePack

jed

!!Акция!!

Alien_Rage

RePack

fifa19

RePack

Assassins Creed: Odyssey

RePack

NEED FOR SPEED™ PAYBACK

4 сезон

9 сезон

Бесстыжие 9 сезон

Все сериалы

все сериалы на PB.wtf

RePack

FAR CRY 5
  

Сучьи войны / Сучья война / Сезон: 1 / Серии: 1-8 из 8 (Николай Борц) [2014, Военный, драма, исторический, WEB-DL 1080p] pb.wtf

Сучьи войны через торрент pb.wtf

Размер: 13.89 GB | Добавлен: 2 года 5 мес. назад | Торрент скачан:123 раза
Скачать  

06-05-2018 16:51 Сучьи войны Скачать торрент  

Сучьи войны / Сучья войнаГод выпуска: 2014
Страна: Россия
Жанр: Военный, драма, исторический
Продолжительность: ~ 00:50:00
Перевод: Не требуется
Субтитры: отсутствуют

Режиссер: Николай Борц



В ролях:

Алексей Демидов, Карина Андоленко, Михаил Пшеничный, Полина Уварова, Василиса Немцова, Алеся Гузько, Агриппина Стеклова, Константин Юшкевич, Андрей Иванов (VI), Янина Исаичкина, Анастасия Привалова, Алика Котова

Описание:

"Сучьей войной" называют безжалостное противостояние между тюремными заключенными которое длилось десять лет - с середины сороковых до середины пятидесятых годов прошлого столетия.Осужденные за уголовные преступления разделились на два противоборствующих лагеря. По одну сторону баррикад находились "воры в законе", которые привыкли жить "по понятиям" и ни при каких обстоятельствах не вступать в переговоры с представителями власти.А с другой стороны были "суки" - заключенные, которые раскаялись в совершении преступления, искренне хотели исправиться. Большинство "сук" во времена Великой Отечественной войны воевали на фронте. Со временем к "сукам" присоединились воры, которые по тем или иным причинам не желали жить "по блатным" законам...

Качество: WEB-DL 1080p
Формат: AVI

Видео: MPEG-4 AVC, ~ 5000 Кбит/с, 1920x1080
Аудио: AC3, 2 ch, 192 Кбит/с
скриншот   скриншот   скриншот  

Общее
Уникальный идентификатор : 183579036707312775941471139102969804951 (0x8A1C09513979BC1590C371B7C943B897)
Полное имя : F:\Suchja.vojna.2014.WEB-DL.(1080p).ExKinoRay\Suchja.vojna.(01.seriya).2014.WEB-DL.(1080p).ExKinoRay.mkv
Формат : Matroska
Версия формата : Version 2
Размер файла : 1,75 Гбайт
Продолжительность : 49 м. 57 с.
Общий поток : 5000 Кбит/сек
Название фильма : ExKinoRay
Дата кодирования : UTC 2016-10-20 01:03:38
Программа кодирования : mkvmerge v5.8.0 ('No Sleep / Pillow') built on Sep 2 2012 15:37:04
Библиотека кодирования : libebml v1.2.3 + libmatroska v1.3.0

Видео
Идентификатор : 1
Формат : AVC
Формат/Информация : Advanced Video Codec
Профиль формата : High@L4.1
Параметр CABAC формата : Да
Параметр RefFrames формата : 5 кадров
Идентификатор кодека : V_MPEG4/ISO/AVC
Продолжительность : 49 м. 57 с.
Битрейт : 4709 Кбит/сек
Ширина : 1920 пикселей
Высота : 1080 пикселей
Соотношение сторон : 16:9
Режим частоты кадров : Постоянный
Частота кадров : 25,000 кадров/сек
Цветовое пространство : YUV
Субдискретизация насыщенности : 4:2:0
Битовая глубина : 8 бит
Тип развёртки : Прогрессивная
Бит/(Пиксели*Кадры) : 0.091
Размер потока : 1,64 Гбайт (94%)
Язык : Russian
Default : Да
Forced : Да

Аудио
Идентификатор : 2
Формат : AC-3
Формат/Информация : Audio Coding 3
Расширение режима : CM (complete main)
Параметр Endianness формата : Big
Идентификатор кодека : A_AC3
Продолжительность : 49 м. 57 с.
Вид битрейта : Постоянный
Битрейт : 192 Кбит/сек
Каналы : 2 канала
Расположение каналов : Front: L R
Частота : 48,0 КГц
Частота кадров : 31,250 кадров/сек (1536 spf)
Метод сжатия : С потерями
Размер потока : 68,6 Мбайт (4%)
Язык : Russian
Default : Да
Forced : Да

pb.wtf



Скачать Сучьи войны через торрент http://pic1.kartinco.top/images/11/xwbgw.jpg Скачать фильм Сучьи войны через торрент бесплантно в хорошем качестве Описание: "Сучьей войной" называют безжалостное противостояние между тюремными заключенными которое длилось десять лет - с середины ... 9.9 10 8
Торрент: Зарегистрирован [2018-05-06 16:51] · скачан: 123 раз
Статус: √ проверено
Размер: 13.89 GB
Как cкачать? Как скачать Сучьи войны через торрент | qTorrent

% Раздел Тема Автор DL S | L
Наши сериалы [ 5.47 GB ] Сучьи войны / Сучья война / Сезон: 1 / Серии: 1-8 из 8 [2014 Военный исторический WEB-DLRip] bober100 Скачать
1 | 0
Наши сериалы [ 4.45 GB ] Сучья война / Сезон: 1 / Серии 1-8 из 8 [2014 Россия Военный исторический SATRip] GEKADOL Скачать
1 | 0

28-11-2019 20:33  

Отключить всю рекламу на сайте

    Дорогой пользователь! Огромная просьба, поблагодарите релизера, оцените раздачу и оставьте свои комментарий, если Вы скачали Сучьи войны через торрент бесплатно! Внесите свою лепту в развитие PiratBit!
    Комментировать посты могут только пользователи прошедшие не сложную регистрацию
    Показать сообщения:    

    Сучьи войны через торрент
    Скачать бесплатно Сучьи войны
    Сучьи войны скачать торрент
    Сучьи войны смотреть онлайн
    Cкачать фильм Сучьи войны бесплатно
    Сучьи войны скачать торрент в хорошем качестве
    Сучьи войны смотреть онлайн бесплатно в хорошем качестве


    Вы не можете начинать темы
    Вы не можете отвечать на сообщения
    Вы не можете редактировать свои сообщения
    Вы не можете удалять свои сообщения
    Вы не можете голосовать в опросах
    Вы не можете прикреплять файлы к сообщениям
    Вы можете скачивать файлы