Ссылка на приватное зеркало нашего сайта всего за 1$. Внимание количество ограничено!!!

2 сезон

iTunes

1 сезон

1

iTunes

iTunes

iTunes

1 сезон

RePack

30

ИГРА 18+

pack

ВАЖНО

!!Акция!!

Alien_RageХит недели

RePack

MK11
pack

Забери бонус

RePack

jed

!!Акция!!

Alien_Rage

RePack

fifa19

RePack

Assassins Creed: Odyssey

RePack

NEED FOR SPEED™ PAYBACK

4 сезон

9 сезон

Бесстыжие 9 сезон

Все сериалы

все сериалы на PB.wtf

RePack

FAR CRY 5
  

На глубине / Сезон: 1 / Серии: 1-16 из 16 (Ярослав Мочалов) [2015, криминал, HDTV 1080i] pb.wtf

На глубине через торрент pb.wtf

Размер: 42.4 GB | Добавлен: 2 года 5 мес. назад | Торрент скачан:7 раз
Скачать  

06-05-2018 16:59 На глубине Скачать торрент  

На глубине
Год выпуска: 2015
Страна: Россия
Жанр: криминал
Продолжительность: ~ 00:48:00
Субтитры: отсутствуют

Режиссер: Ярослав Мочалов



В ролях:

Алексей Гуськов, Дмитрий Ратомский, Михаил Бабичев, Полина Сидихина, Виктория Герасимова, Василий Бочкарев, Олег Тактаров, Игорь Савочкин, Сергей Астахов, Юрий Сафаров

Описание:

Одна из специальных групп полицейских под прикрытием занимается поиском особо опасных преступников. Возглавляет группу харизматичный майор Жур (Алексей Гуськов). Характер у него строптивый, начальство его терпеть не может за прямоту и зачастую неординарные действия по обезвреживанию бандитов. К себе в команду майор взял троих: Селима (Михаил Бабичев), Дена Крылова (Дмитрий Ратомский) — и Алову (Полина Сидихина), которую буквально «вытащил из-под земли» — раньше она работала в УВД при метрополитене.
Отряд должен будет выйти на торговцев оружием, для чего Селиму придется сыграть роль одного из заказчиков. Для успешного расследования дела о похищении людей самому Журу нужно будет «подставиться», чтобы попасть в плен к банде, которая удерживает заложника. Нелегкая роль в одной из операций по поиску наркоторговцев ждет и Алову, до работы в органах сталкивавшуюся с наркозависимостью. А внедрение в банду торговцев алмазами станет непростым испытанием для Дэна из-за дружеских отношений с одним из преступников, переступить через которые окажется не так просто.
Ежедневно сотрудники отдела будут вставать перед выбором — правда и ложь, добро и зло. Часто героям фильма предстоит воевать не только с нарушителями закона, но и с самими собой… Кто выйдет победителем из этих противостояний, смотрите в новом сериале «На глубине» на НТВ!

Качество: HDTV 1080i
Формат: MPEG-TS

Видео: MPEG-4 AVC, ~ 7 900 Кбит/с, 1920x1080
Аудио: MP2, 2 ch, 192 Кбит/с
скриншот   скриншот   скриншот  

Общее
Идентификатор : 1 (0x1)
Полное имя : F:\Na.glubine.2015.HDTV.(1080i).MediaClub\Na.glubine.(01.seriya.iz.24).2015.HDTV.(1080i).MediaClub.ts
Формат : MPEG-TS
Размер файла : 2,65 Гбайт
Продолжительность : 44 м. 44 с.
Режим общего битрейта : Переменный
Общий поток : 8477 Кбит/сек

Видео
Идентификатор : 901 (0x385)
Идентификатор меню : 1116 (0x45C)
Формат : AVC
Формат/Информация : Advanced Video Codec
Профиль формата : Main@L4
Параметр CABAC формата : Да
Параметр RefFrames формата : 2 кадра
Параметр GOP формата : M=3, N=30
Идентификатор кодека : 27
Продолжительность : 44 м. 44 с.
Битрейт : 7864 Кбит/сек
Ширина : 1920 пикселей
Высота : 1080 пикселей
Соотношение сторон : 16:9
Частота кадров : 25,000 кадров/сек
Цветовое пространство : YUV
Субдискретизация насыщенности : 4:2:0
Битовая глубина : 8 бит
Тип развёртки : MBAFF
Метод сохранения типа развёртки : Чередующиеся поля
Порядок развёртки : Верхнее поле первое
Бит/(Пиксели*Кадры) : 0.152
Размер потока : 2,46 Гбайт (93%)
Цветовой диапазон : Limited
Основные цвета : BT.709
Характеристики трансфера : BT.709
Коэффициенты матрицы : BT.709

Аудио
Идентификатор : 902 (0x386)
Идентификатор меню : 1116 (0x45C)
Формат : MPEG Audio
Версия формата : Version 1
Профиль формата : Layer 2
Идентификатор кодека : 3
Продолжительность : 44 м. 44 с.
Вид битрейта : Постоянный
Битрейт : 192 Кбит/сек
Каналы : 2 канала
Частота : 48,0 КГц
Метод сжатия : С потерями
Размер потока : 61,4 Мбайт (2%)
Язык : Russian

pb.wtf



Скачать На глубине через торрент http://i66.fastpic.ru/big/2016/0125/96/8355f92a7dd171d8267040a64cab4096.jpg Скачать фильм На глубине через торрент бесплантно в хорошем качестве Описание: Одна из специальных групп полицейских под прикрытием занимается поиском особо опасных преступников. Возглавляет группу ... 10 10 2
Info! Золотая раздача, скачанное не засчитывается.
Торрент: Зарегистрирован [2018-05-06 16:59] · скачан: 7 раз
Статус: √ проверено
Размер: 42.4 GB
Как cкачать? Как скачать На глубине через торрент | qTorrent

% Раздел Тема Автор DL S | L
Наши сериалы [ 21.21 GB ] На глубине / Сезон: 1 / Серии: 1-16 из 16 [2015 WEB-DL 1080p] bober100 Скачать
1 | 0
Наши сериалы [ 8.6 GB ] На глубине / Сезон: 1 / Серии: 1-16 из 16 [2015 WEB-DLRip] bober100 Скачать
1 | 0
Наши сериалы [ 24.89 GB ] На глубине / Сезон: 1 / Серии: 1-16 из 16 [2015 HDTVRip 720p] bober100 Скачать
1 | 0
Наши сериалы [ 10.95 GB ] На глубине / Сезон: 1 / Серии: 1-16 из 16 [2015 HDTVRip-AVC] bober100 Скачать
1 | 0
Наши сериалы [ 8.6 GB ] На глубине / Сезон: 1 / Серии: 1-16 из 16 [2015 HDTVRip] bober100 Скачать
1 | 0
Наши сериалы [ 9.6 GB ] На глубине / Сезон: 1 / Серии: 1-16 из 16 [2015 SATRip] bober100 Скачать
1 | 0

28-11-2019 20:33  

Отключить всю рекламу на сайте

    Дорогой пользователь! Огромная просьба, поблагодарите релизера, оцените раздачу и оставьте свои комментарий, если Вы скачали На глубине через торрент бесплатно! Внесите свою лепту в развитие PiratBit!
    Комментировать посты могут только пользователи прошедшие не сложную регистрацию
    Показать сообщения:    

    На глубине через торрент
    Скачать бесплатно На глубине
    На глубине скачать торрент
    На глубине смотреть онлайн
    Cкачать фильм На глубине бесплатно
    На глубине скачать торрент в хорошем качестве
    На глубине смотреть онлайн бесплатно в хорошем качестве


    Вы не можете начинать темы
    Вы не можете отвечать на сообщения
    Вы не можете редактировать свои сообщения
    Вы не можете удалять свои сообщения
    Вы не можете голосовать в опросах
    Вы не можете прикреплять файлы к сообщениям
    Вы можете скачивать файлы