Ссылка на приватное зеркало всего за 1$. Внимание количество ограничено!!!

OK

1+1

iTunes

мы

OK

1

WEB-DLRip

Джокер

Пифагор

Ведьмак / The Witcher сериал

iTunes

ПШазам

ОК

Оно 2

iTunes

30
pack

Вам бонус

ВАЖНО

!!Акция!!

Alien_RageХит недели

RePack

Resident Evil 21

ИГРА 18+

pack

RePack

jed

RePack

fifa19

RePack

Assassins Creed: Odyssey

RePack

NEED FOR SPEED™ PAYBACK

4 сезон

9 сезон

Бесстыжие 9 сезон

Все сериалы

все сериалы на PB.wtf

RePack

FAR CRY 5
  

Прости нам долги наши / Rimetti a noi i nostri debiti (Антонио Морабито) [2018, драма, WEB-DL 720p] MVO [@MUZOBOZ@] pb.wtf

Прости нам долги наши через торрент pb.wtf

Размер: 3.51 GB | Добавлен: 1 год 8 мес. назад | Торрент скачан:66 раз
Скачать  

06-05-2018 19:35 Прости нам долги наши Скачать торрент  

Прости нам долги наши / Rimetti a noi i nostri debitiГод выпуска: 2018
Страна: Италия, Швейцария, Албания, Польша
Жанр: драма
Продолжительность: 01:46:50
Перевод: Любительский (многоголосый) | @MUZOBOZ@
Субтитры: отсутствуют

Режиссер: Антонио Морабито

rating

В ролях:

Клаудио Сантамария, Марко Джаллини, Ежи Штур, Флоня Кодели, Агнешка Жулевска, Леонардо Нигро, Маддалена Криппа, Джорджо Гобби, Паоло Де Вита, Паола Лавини

Описание:

Сюжет развивается в Италии, в Риме и вращается вокруг жизни Гвидо. Ему сорок лет, он по уши в долгах и у него практически нет друзей. Работает мужчина кладовщиком и иногда перебивается случайными заработками. Когда он теряет свою и без того малооплачиваемую работу, его избивает человек посланный его кредитором.

Качество: WEB-DL 720p
Формат: MKV

Видео: H.264, 4 312 Kb/s, 1280x536
Аудио: AC3, 2 ch, 384 Кбит/с
скриншот  скриншот  скриншот  

Общее
Уникальный идентификатор : 230604424345222393715499567073243779619 (0xAD7CCBEEFDB763348949263AC4195223)
Полное имя : F:\Rimetti.A.Noi.I.Nostri.Debiti.2018.P.WEB_DL.72Op_KOSHARA.mkv
Формат : Matroska
Версия формата : Version 2
Размер файла : 3,51 Гбайт
Продолжительность : 1 ч. 46 м.
Режим общего битрейта : Переменный
Общий поток : 4697 Кбит/сек
Дата кодирования : UTC 2018-05-06 16:48:40
Программа кодирования : mkvmerge v8.3.0 ('Over the Horizon') 64bit
Библиотека кодирования : libebml v1.3.1 + libmatroska v1.4.2

Видео
Идентификатор : 1
Формат : AVC
Формат/Информация : Advanced Video Codec
Профиль формата : High@L4.1
Параметр CABAC формата : Да
Параметр RefFrames формата : 4 кадра
Идентификатор кодека : V_MPEG4/ISO/AVC
Продолжительность : 1 ч. 46 м.
Вид битрейта : Переменный
Битрейт : 4312 Кбит/сек
Максимальный битрейт : 5000 Кбит/сек
Ширина : 1280 пикселей
Высота : 536 пикселей
Соотношение сторон : 2,40:1
Режим частоты кадров : Постоянный
Частота кадров : 23,976 (24000/1001) кадра/сек
Стандарт вещания : Component
Цветовое пространство : YUV
Субдискретизация насыщенности : 4:2:0
Битовая глубина : 8 бит
Тип развёртки : Прогрессивная
Бит/(Пиксели*Кадры) : 0.257
Размер потока : 3,15 Гбайт (90%)
Default : Да
Forced : Нет
Цветовой диапазон : Limited
Основные цвета : BT.709
Характеристики трансфера : BT.709
Коэффициенты матрицы : BT.709

Аудио
Идентификатор : 2
Формат : AC-3
Формат/Информация : Audio Coding 3
Расширение режима : CM (complete main)
Параметр Endianness формата : Big
Идентификатор кодека : A_AC3
Продолжительность : 1 ч. 46 м.
Вид битрейта : Постоянный
Битрейт : 384 Кбит/сек
Каналы : 2 канала
Расположение каналов : Front: L R
Частота : 48,0 КГц
Частота кадров : 31,250 кадров/сек (1536 spf)
Метод сжатия : С потерями
Размер потока : 293 Мбайт (8%)
Default : Да
Forced : Нет

pb.wtf



Скачать Прости нам долги наши через торрент http://img12.lostpic.net/2018/05/06/ff6ccafdd09326f916d00f9409a49329.jpg Скачать фильм Прости нам долги наши через торрент бесплантно в хорошем качестве Описание: Сюжет развивается в Италии, в Риме и вращается вокруг жизни Гвидо. Ему сорок лет, он по уши в долгах и у него практически нет ... 8.5 10 6
Торрент: Зарегистрирован [2018-05-06 19:35] · скачан: 66 раз
Статус: T временная
Размер: 3.51 GB
Как cкачать? Как скачать Прости нам долги наши через торрент | qTorrent

% Раздел Тема Автор DL S | L
T Фильмы (мультфильмы) cо спонсором показа (Новинки AVI/MKV) [ 1.46 GB ] Прости нам долги наши / Rimetti a noi i nostri debiti [2018 WEB-DLRip] MVO [@MUZOBOZ@] bober100 Скачать
1 | 0

28-11-2019 20:33  

Отключить всю рекламу на сайте

    Дорогой пользователь! Огромная просьба, поблагодарите релизера, оцените раздачу и оставьте свои комментарий, если Вы скачали Прости нам долги наши через торрент бесплатно! Внесите свою лепту в развитие PiratBit!
    Комментировать посты могут только пользователи прошедшие не сложную регистрацию
    Показать сообщения:    

    Прости нам долги наши через торрент
    Скачать бесплатно Прости нам долги наши
    Прости нам долги наши скачать торрент
    Прости нам долги наши смотреть онлайн
    Cкачать фильм Прости нам долги наши бесплатно
    Прости нам долги наши скачать торрент в хорошем качестве
    Прости нам долги наши смотреть онлайн бесплатно в хорошем качестве


    Вы не можете начинать темы
    Вы не можете отвечать на сообщения
    Вы не можете редактировать свои сообщения
    Вы не можете удалять свои сообщения
    Вы не можете голосовать в опросах
    Вы не можете прикреплять файлы к сообщениям
    Вы можете скачивать файлы