Ссылка на приватное зеркало нашего сайта всего за 1$. Внимание количество ограничено!!!

2 сезон

iTunes

1 сезон

1

iTunes

iTunes

iTunes

1 сезон

RePack

30

ИГРА 18+

pack

ВАЖНО

!!Акция!!

Alien_RageХит недели

RePack

MK11
pack

Забери бонус

RePack

jed

!!Акция!!

Alien_Rage

RePack

fifa19

RePack

Assassins Creed: Odyssey

RePack

NEED FOR SPEED™ PAYBACK

4 сезон

9 сезон

Бесстыжие 9 сезон

Все сериалы

все сериалы на PB.wtf

RePack

FAR CRY 5
  

По законам военного времени / Сезон: 2 / Серии: 1-8 из 8 (Максим Мехеда) [2018, Военный, драма, история, HDTV 1080i] pb.wtf

По законам военного времени через торрент pb.wtf

Размер: 16.6 GB | Добавлен: 2 года 5 мес. назад | Торрент скачан:102 раза
Скачать  

06-05-2018 20:13 По законам военного времени Скачать торрент  

По законам военного времени
Год выпуска: 2018
Страна: Россия, Украина
Жанр: Военный, драма, история
Продолжительность: ~ 00:48:00
Субтитры: отсутствуют

Режиссер: Максим Мехеда



В ролях:

Екатерина Климова, Евгений Воловенко, Максим Дрозд, Сергей Деньга, Алексей Шутов, Екатерина Соломатина, Павел Стонт, Дмитрий Сарансков, Светлана Зельбет, Андрей Клименков, Станислав Боклан, Виктория Литвиненко-Ясиновская, Анатолий Зиновенко, Александр Панкратов-Чёрный

Описание:

Осень 1941 года. Чудом вырвавшиеся из киевского котла, следователи военной прокуратуры Рокотов, Мирский и Елагина прибывают в Харьков, где уже полным ходом идет эвакуация. У них на руках важные сведения о деятельности немецкой шпионской организации, которые нужно срочно передать в центр. Но неожиданный приказ руководства вынуждает их задержаться в Харькове. Ведь вместе с эвакуируемыми предприятиями, под видом беженцев, на восток движутся группы немецких диверсантов, цель которых – диверсии и саботажи на военных заводах, расположенных на Урале и в Западной Сибири. Пытаясь раскрыть каналы переправки лазутчиков в советский тыл, Рокотов с Елагиной узнают, что действующая в Харькове организация напрямую связана с киевской группой, раскрытой ими за несколько часов до сдачи города. А куратор обеих этих группировок занимает высокий пост в Главной военной прокуратуре в Москве.

Качество: HDTV 1080i
Формат: MPEG-TS

Видео: AVC, ~ 5 300 Кбит/с, 1920x1080
Аудио#1: Русский (AC3, 6 ch, 384 Кбит/с)
Аудио#2: Русский (MP2, 2 ch, 192 Кбит/с)
скриншот   скриншот   скриншот   скриншот  

Общее
Идентификатор : 1 (0x1)
Полное имя : F:\Po zakonam voennogo vremeni 2.HDTV(1080i).GeneralFilm\01.Po zakonam voennogo vremeni 2.HDTV(1080i).GeneralFilm.ts
Формат : MPEG-TS
Размер файла : 2,22 Гбайт
Продолжительность : 51 м. 45 с.
Режим общего битрейта : Переменный
Общий поток : 6144 Кбит/сек

Видео
Идентификатор : 4121 (0x1019)
Идентификатор меню : 80 (0x50)
Формат : AVC
Формат/Информация : Advanced Video Codec
Профиль формата : High@L4
Параметр CABAC формата : Да
Параметр RefFrames формата : 3 кадра
Идентификатор кодека : 27
Продолжительность : 51 м. 45 с.
Битрейт : 5258 Кбит/сек
Ширина : 1920 пикселей
Высота : 1080 пикселей
Соотношение сторон : 16:9
Частота кадров : 25,000 кадров/сек
Стандарт вещания : Component
Цветовое пространство : YUV
Субдискретизация насыщенности : 4:2:0
Битовая глубина : 8 бит
Тип развёртки : Чересстрочная
Метод сохранения типа развёртки : Раздельные поля
Порядок развёртки : Верхнее поле первое
Бит/(Пиксели*Кадры) : 0.101
Размер потока : 1,90 Гбайт (86%)
Цветовой диапазон : Limited
Основные цвета : BT.709
Характеристики трансфера : BT.709
Коэффициенты матрицы : BT.709

Аудио #1
Идентификатор : 4124 (0x101C)
Идентификатор меню : 80 (0x50)
Формат : AC-3
Формат/Информация : Audio Coding 3
Расширение режима : CM (complete main)
Параметр Endianness формата : Big
Идентификатор кодека : 6
Продолжительность : 51 м. 45 с.
Вид битрейта : Постоянный
Битрейт : 384 Кбит/сек
Каналы : 6 каналов
Расположение каналов : Front: L C R, Side: L R, LFE
Частота : 48,0 КГц
Частота кадров : 31,250 кадров/сек (1536 spf)
Метод сжатия : С потерями
Задержка видео : -80 мс.
Размер потока : 142 Мбайт (6%)
Язык : Russian

Аудио #2
Идентификатор : 4125 (0x101D)
Идентификатор меню : 80 (0x50)
Формат : MPEG Audio
Версия формата : Version 1
Профиль формата : Layer 2
Идентификатор кодека : 3
Продолжительность : 51 м. 45 с.
Вид битрейта : Постоянный
Битрейт : 192 Кбит/сек
Каналы : 2 канала
Частота : 48,0 КГц
Метод сжатия : С потерями
Задержка видео : -80 мс.
Размер потока : 71,1 Мбайт (3%)
Язык : Russian

Внимание! Раздача ведётся путём добавления новых серий; при каждом добавлении создаётся новый торрент. Чтобы начать докачку новой серии, пользователям необходимо сделать следующее:
(1) остановить скачивание,
(2) удалить старый торрент у себя из клиента (старые серии удалять не надо),
(3) скачать новый торрент и запустить его у себя в клиенте вместо старого, при этом указать клиенту путь в старую папку куда и должно происходить скачивание новых серий.
Ваш клиент при этом должен произвести хеширование (проверку) старой папки (если не производит сам - помогите ему сделать это), и будет докачивать только те серии которых у вас ещё нет. Старые серии при этом не удаляются, а продолжают раздаваться!
Eсли вы уже удалили старые серии, то предотвратить повторную закачку старых серий можно, отжав галочку в соответствующих местах при запуске нового торрента. По возможности, желательно не удалять старые серии как можно дольше чтобы релизёр не столько продолжал раздавать старые серии, а смог сконцентрироваться на новых.
pb.wtf



Скачать По законам военного времени через торрент http://c.radikal.ru/c22/1805/63/57f0b32f378f.jpg Скачать фильм По законам военного времени через торрент бесплантно в хорошем качестве Описание: Осень 1941 года. Чудом вырвавшиеся из киевского котла, следователи военной прокуратуры Рокотов, Мирский и Елагина прибывают в ... 9.5 10 13
Торрент: Зарегистрирован [2018-05-08 16:59] · скачан: 102 раз
Статус: √ проверено
Размер: 16.6 GB
Как cкачать? Как скачать По законам военного времени через торрент | qTorrent

% Раздел Тема Автор DL S | L
Наши сериалы [ 6.14 GB ] По законам военного времени / Сезон: 2 / Серии: 1-8 из 8 [2018 Военный история HDTVRip-AVC] bober100 Скачать
1 | 0
Наши сериалы [ 9.37 GB ] По законам военного времени / Сезон: 2 / Серии: 1-8 из 8 [2018 Военный история WEB-DL 720p] bober100 Скачать
1 | 0
Наши сериалы [ 5.08 GB ] По законам военного времени / Сезон: 2 / Серии: 1-8 из 8 [2018 Военный история WEB-DLRip] bober100 Скачать
1 | 0
Наши сериалы [ 10.33 GB ] По законам военного времени / Сезон: 2 / Серии: 1-8 из 8 [2018 Военный история HDTVRip 720p] bober100 Скачать
1 | 0
Наши сериалы [ 5.3 GB ] По законам военного времени / Сезон: 2 / Серии: 1-8 из 8 [2018военный SATRip-AVC] aleksan55 Скачать
1 | 0
Наши сериалы [ 5.6 GB ] По законам военного времени / Сезон: 2 / Серии: 1-8 из 8 [2018 Военный история HDTVRip] bober100 Скачать
1 | 0
Наши сериалы [ 5.16 GB ] По законам военного времени / Сезон: 2 / Серии: 1-8 из 8 [2018 Военный история SATRip] bober100 Скачать
1 | 0


Последний раз редактировалось: bober100 (2018-05-08 16:59), всего редактировалось 2 раз(а)

28-11-2019 20:33  

Отключить всю рекламу на сайте

06-05-2018 21:41 По законам военного времени Скачать торрент  

Спасибо! Хороший фильм!pb.wtf



07-05-2018 16:19 По законам военного времени Скачать торрент  

спасибо хороший фильмpb.wtf



    Дорогой пользователь! Огромная просьба, поблагодарите релизера, оцените раздачу и оставьте свои комментарий, если Вы скачали По законам военного времени через торрент бесплатно! Внесите свою лепту в развитие PiratBit!
    Комментировать посты могут только пользователи прошедшие не сложную регистрацию
    Показать сообщения:    

    По законам военного времени через торрент
    Скачать бесплатно По законам военного времени
    По законам военного времени скачать торрент
    По законам военного времени смотреть онлайн
    Cкачать фильм По законам военного времени бесплатно
    По законам военного времени скачать торрент в хорошем качестве
    По законам военного времени смотреть онлайн бесплатно в хорошем качестве


    Вы не можете начинать темы
    Вы не можете отвечать на сообщения
    Вы не можете редактировать свои сообщения
    Вы не можете удалять свои сообщения
    Вы не можете голосовать в опросах
    Вы не можете прикреплять файлы к сообщениям
    Вы можете скачивать файлы