Ссылка на приватное зеркало нашего сайта всего за 1$. Внимание количество ограничено!!!

2 сезон

iTunes

1 сезон

1

iTunes

iTunes

iTunes

1 сезон

RePack

30

ИГРА 18+

pack

ВАЖНО

!!Акция!!

Alien_RageХит недели

RePack

MK11
pack

Забери бонус

RePack

jed

!!Акция!!

Alien_Rage

RePack

fifa19

RePack

Assassins Creed: Odyssey

RePack

NEED FOR SPEED™ PAYBACK

4 сезон

9 сезон

Бесстыжие 9 сезон

Все сериалы

все сериалы на PB.wtf

RePack

FAR CRY 5
  

Аметистовая сережка / Серии: 1-4 из 4 (Алексей Лисовец) [2018, Мелодрама, WEBRip 720p] pb.wtf

Аметистовая сережка через торрент pb.wtf

Размер: 3.82 GB | Добавлен: 2 года 5 мес. назад | Торрент скачан:50 раз
Скачать  

07-05-2018 00:25 Аметистовая сережка Скачать торрент  

Аметистовая сережкаГод выпуска: 2018
Страна: Украина
Жанр: Мелодрама
Продолжительность: ~ 00:42:18
Перевод: Не требуется
Субтитры: отсутствуют

Режиссер: Алексей Лисовец

В ролях:

Анна Кузина, Екатерина Тышкевич, Владимир Заец

Описание:

Акушер-гинеколог Евгения и финансовый аналитик Виктор жили счастливо, пока Виктор не начал изменять. Узнав в какой-то момент, что от него беременны и жена и любовница, Виктор выбрал жену. Анна все равно решила рожать, а когда ребенок родился мертвым, едва не сошла с ума. Но после конфликт как-то разрешился: Виктор окончательно порвал с Анной и вернулся в семью, да и Анна, осознав, что была неправа и в смерти ее ребенка виноват лишь трагический случай, уехала в родной город. Проходит время. Брак Евгении с Виктором дышит на ладан, но супруги сохраняют его ради сына Кости. Но тут Евгения находит дома чужую аметистовую сережку...

Качество: WEBRip 720p
Формат: MKV

Видео: MPEG-4 AVC, ~ 3000 Кбит/с, 1280x720
Аудио: AC3, 2 ch, 192 Кбит/с
скриншот   скриншот   скриншот  

Общее
Уникальный идентификатор : 13932680449352996638029764633567601895 (0xA7B562E953967964582545A6462A4E7)
Полное имя : F:\Аметистовая сережка.2018.WEBRip (720p).by.Nicodem.Files-x\01.Аметистовая сережка.2018.WEBRip (720p).by.Nicodem.Files-x.mkv
Формат : Matroska
Версия формата : Version 4 / Version 2
Размер файла : 963 Мбайт
Продолжительность : 42 м. 18 с.
Режим общего битрейта : Постоянный
Общий поток : 3184 Кбит/сек
Программа кодирования : Lavf56.36.100
Библиотека кодирования : Lavf56.36.100 / Lavf56.36.100

Видео
Идентификатор : 1
Формат : AVC
Формат/Информация : Advanced Video Codec
Профиль формата : High@L3.1
Параметр CABAC формата : Нет
Параметр RefFrames формата : 2 кадра
Идентификатор кодека : V_MPEG4/ISO/AVC
Продолжительность : 42 м. 18 с.
Вид битрейта : Постоянный
Битрейт : 3000 Кбит/сек
Ширина : 1280 пикселей
Высота : 720 пикселей
Соотношение сторон : 16:9
Режим частоты кадров : Постоянный
Частота кадров : 25,000 кадров/сек
Стандарт вещания : PAL
Цветовое пространство : YUV
Субдискретизация насыщенности : 4:2:0
Битовая глубина : 8 бит
Тип развёртки : Прогрессивная
Бит/(Пиксели*Кадры) : 0.130
Размер потока : 886 Мбайт (92%)
Default : Да
Forced : Нет
Цветовой диапазон : Limited
Основные цвета : BT.709
Характеристики трансфера : BT.709
Коэффициенты матрицы : BT.709

Аудио
Идентификатор : 2
Формат : AC-3
Формат/Информация : Audio Coding 3
Расширение режима : CM (complete main)
Параметр Endianness формата : Big
Идентификатор кодека : A_AC3
Продолжительность : 42 м. 18 с.
Вид битрейта : Постоянный
Битрейт : 192 Кбит/сек
Каналы : 2 канала
Расположение каналов : Front: L R
Частота : 48,0 КГц
Частота кадров : 31,250 кадров/сек (1536 spf)
Метод сжатия : С потерями
Задержка видео : -40 мс.
Размер потока : 58,1 Мбайт (6%)
Язык : unknown
Default : Да
Forced : Нет

pb.wtf



Скачать Аметистовая сережка через торрент http://i105.fastpic.ru/big/2018/0506/a2/4bf40d1ec197d69c6edf1544e01defa2.jpg Скачать фильм Аметистовая сережка через торрент бесплантно в хорошем качестве Описание: Акушер-гинеколог Евгения и финансовый аналитик Виктор жили счастливо, пока Виктор не начал изменять. Узнав в какой-то момент, что ... 10 10 2
Торрент: Зарегистрирован [2018-05-07 00:25] · скачан: 50 раз
Статус: √ проверено
Размер: 3.82 GB
Как cкачать? Как скачать Аметистовая сережка через торрент | qTorrent

% Раздел Тема Автор DL S | L
Наши сериалы [ 2.35 GB ] Аметистовая сережка / Серии: 1-4 из 4 [2018 Мело WEBRip] bober100 Скачать
1 | 0

28-11-2019 20:33  

Отключить всю рекламу на сайте

    Дорогой пользователь! Огромная просьба, поблагодарите релизера, оцените раздачу и оставьте свои комментарий, если Вы скачали Аметистовая сережка через торрент бесплатно! Внесите свою лепту в развитие PiratBit!
    Комментировать посты могут только пользователи прошедшие не сложную регистрацию
    Показать сообщения:    

    Аметистовая сережка через торрент
    Скачать бесплатно Аметистовая сережка
    Аметистовая сережка скачать торрент
    Аметистовая сережка смотреть онлайн
    Cкачать фильм Аметистовая сережка бесплатно
    Аметистовая сережка скачать торрент в хорошем качестве
    Аметистовая сережка смотреть онлайн бесплатно в хорошем качестве


    Вы не можете начинать темы
    Вы не можете отвечать на сообщения
    Вы не можете редактировать свои сообщения
    Вы не можете удалять свои сообщения
    Вы не можете голосовать в опросах
    Вы не можете прикреплять файлы к сообщениям
    Вы можете скачивать файлы