Ссылка на приватное зеркало нашего сайта всего за 1$. Внимание количество ограничено!!!

2 сезон

iTunes

1 сезон

1

2 сезон

2 сезон

iTunes

1 сезон

RePack

30

Ultimate

ВАЖНО

ИГРА 18+

pack

RePack

MK11
pack

Забери бонус

RePack

jed

!!Акция!!

Alien_Rage

RePack

fifa19

RePack

Assassins Creed: Odyssey

RePack

NEED FOR SPEED™ PAYBACK

4 сезон

9 сезон

Бесстыжие 9 сезон

Все сериалы

все сериалы на PB.wtf

RePack

FAR CRY 5
  

Кобра-Кай / Cobra Kai / Сезон: 1 / Серии: 1-10 из 10 (Джон Харвитц, Хейден Шлоссберг, Дженнифер Челотта) [2018, Боевик, драма, комедия, WEB-DLRip] MVO [BaibaKo] pb.wtf

Кобра-Кай через торрент pb.wtf

Размер: 3.91 GB | Добавлен: 2 года 6 мес. назад | Торрент скачан:90 раз
Скачать  

07-05-2018 06:43 Кобра-Кай Скачать торрент  

Кобра-Кай / Cobra Kai
Год выпуска: 2018
Страна: США
Жанр: Боевик, драма, комедия
Продолжительность: ~ 00:28:00
Перевод: Профессиональный многоголосый |
Субтитры: отсутствуют

Режиссер: Джон Харвитц, Хейден Шлоссберг, Дженнифер Челотта

rating

В ролях:

Холо Маридуэньо, Тэннер Бьюкэнэн, Джейкоб Бертран, Кортни Хенгелер, Ральф Маччио, Мэри Мэтилин Маусер, Уильям Забка, Николь Браун, Коннор Мёрдок, Гриффин Сантопьетро

Описание:

В прошлом хулиган, а ныне разорившийся неудачник, Джонни Лоуренс считает, что единственный его шанс вернуться к нормальной жизни — заново открыть печально известную школу карате «Кобра Кай». Попытка наладить свои дела сводит Джонни с Дэниелом ЛаРуссо — успешным мужчиной, который изо всех сил старается сохранять жизненную гармонию, которой когда-то учил его мистер Мияги. Встретившись вновь, Дэнни и Джонни пытаются избавиться от демонов прошлого и проблем настоящего единственным известным им способом — с помощью карате.

Качество: WEB-DLRip
Формат: AVI

Видео: XviD, ~ 1500 Кбит/с, 720x400
Аудио#1: Русский (MP3, 2 ch, 192 Кбит/с)
Аудио#2: Английский (MP3, 2 ch, 192 Кбит/с)
скриншот   скриншот   скриншот   скриншот  

Общее
Полное имя : F:\Cobra.Kai.s01.WEB-DLRip.XviD.Rus.Eng.BaibaKo.tv\Cobra.Kai.s01e01.WEB-DLRip.XviD.Rus.Eng.BaibaKo.tv.avi
Формат : AVI
Формат/Информация : Audio Video Interleave
Размер файла : 382 Мбайт
Продолжительность : 28 м. 15 с.
Общий поток : 1890 Кбит/сек

Видео
Идентификатор : 0
Формат : MPEG-4 Visual
Профиль формата : Advanced Simple@L5
Параметр BVOP формата : 2
Параметр QPel формата : Нет
Параметр GMC формата : Без точки перехода
Параметр матрицы формата : Default (H.263)
Идентификатор кодека : XVID
Идентификатор кодека/Подсказка : XviD
Продолжительность : 28 м. 15 с.
Битрейт : 1499 Кбит/сек
Ширина : 720 пикселей
Высота : 400 пикселей
Соотношение сторон : 16:9
Частота кадров : 23,976 (24000/1001) кадра/сек
Цветовое пространство : YUV
Субдискретизация насыщенности : 4:2:0
Битовая глубина : 8 бит
Тип развёртки : Прогрессивная
Метод сжатия : С потерями
Бит/(Пиксели*Кадры) : 0.217
Размер потока : 303 Мбайт (79%)
Библиотека кодирования : XviD 65

Аудио #1
Идентификатор : 1
Формат : MPEG Audio
Версия формата : Version 1
Профиль формата : Layer 3
Режим : Joint stereo
Расширение режима : MS Stereo
Идентификатор кодека : 55
Идентификатор кодека/Подсказка : MP3
Продолжительность : 28 м. 15 с.
Вид битрейта : Постоянный
Битрейт : 192 Кбит/сек
Каналы : 2 канала
Частота : 48,0 КГц
Метод сжатия : С потерями
Размер потока : 38,8 Мбайт (10%)
Выравнивание : Соединение по промежуткам
Продолжительность промежутка : 167 мс. (4,00 видеокадра)
Время предзагрузки промежутка : 216 мс.
Заголовок : Cobra.Kai.S01E01 RUS
Библиотека кодирования : LAME3.99r
Настройки программы : -m j -V 4 -q 2 -lowpass 18.6 -b 192

Аудио #2
Идентификатор : 2
Формат : MPEG Audio
Версия формата : Version 1
Профиль формата : Layer 3
Режим : Joint stereo
Расширение режима : MS Stereo
Идентификатор кодека : 55
Идентификатор кодека/Подсказка : MP3
Продолжительность : 28 м. 15 с.
Вид битрейта : Постоянный
Битрейт : 192 Кбит/сек
Каналы : 2 канала
Частота : 48,0 КГц
Метод сжатия : С потерями
Размер потока : 38,8 Мбайт (10%)
Выравнивание : Соединение по промежуткам
Продолжительность промежутка : 167 мс. (4,00 видеокадра)
Время предзагрузки промежутка : 216 мс.
Заголовок : Cobra.Kai.S01E01 English
Библиотека кодирования : LAME3.99r
Настройки программы : -m j -V 4 -q 2 -lowpass 18.6 -b 192

pb.wtf



Скачать Кобра-Кай через торрент http://pic1.kartinco.top/images/11/o5uf26.jpg Скачать фильм Кобра-Кай через торрент бесплантно в хорошем качестве Описание: В прошлом хулиган, а ныне разорившийся неудачник, Джонни Лоуренс считает, что единственный его шанс вернуться к нормальной жизни ... 10 10 4
Торрент: Зарегистрирован [2018-05-07 06:43] · скачан: 90 раз
Статус: √ проверено
Размер: 3.91 GB
Как cкачать? Как скачать Кобра-Кай через торрент | qTorrent

% Раздел Тема Автор DL S | L
Зарубежные сериалы [ 18.73 GB ] Кобра Кай / Cobra Kai / Сезон: 1 / Серии: 1-10 из 10 [2018 WEB-DL 1080p] MVO [VSI Moscow] bober100 Скачать
1 | 0
Зарубежные сериалы [ 2.06 GB ] Кобра Кай / Cobra Kai / Сезон: 2 / Серии: 1- из 10 [2019 WEB-DL 1080p] MVO [VSI Moscow] bober100 Скачать
1 | 0
Зарубежные сериалы [ 27.86 GB ] Кобра-Кай / Cobra Kai / Сезон: 2 / Серии: 1-10 из 10 [2019 WEB-DL 2160p] [MVO] killermax2013 Скачать
1 | 0
Зарубежные сериалы [ 13.7 GB ] Кобра-Кай / Cobra Kai / Сезон: 2 / Серии: 1-10 из 10 [2019 WEB-DL 1080p] [MVO] killermax2013 Скачать
5 | 0
Зарубежные сериалы [ 2.91 GB ] Кобра-Кай / Cobra Kai / Сезон: 2 / Серии: 1-10 из 10 [2019 WEBRip] [DVO] killermax2013 Скачать
1 | 0
Зарубежные сериалы [ 3.5 GB ] Кобра-Кай / Cobra Kai / Сезон: 2 / Серии: 1-10 из 10 [2019 WEB-DLRip] [MVO] killermax2013 Скачать
1 | 0
Зарубежные сериалы [ 3.33 GB ] Кобра-Кай / Cobra Kai / Сезон: 1 / Серии: 1-10 из 10 [2018 WEBRip] MVO [Good People] bober100 Скачать
1 | 0

28-11-2019 20:33  

Отключить всю рекламу на сайте

08-05-2018 17:24 Кобра-Кай Скачать торрент  

Кому как, а мне зашло. Буду надеяться, что второму сезону таки быть.pb.wtf



    Дорогой пользователь! Огромная просьба, поблагодарите релизера, оцените раздачу и оставьте свои комментарий, если Вы скачали Кобра-Кай через торрент бесплатно! Внесите свою лепту в развитие PiratBit!
    Комментировать посты могут только пользователи прошедшие не сложную регистрацию
    Показать сообщения:    

    Кобра-Кай через торрент
    Скачать бесплатно Кобра-Кай
    Кобра-Кай скачать торрент
    Кобра-Кай смотреть онлайн
    Cкачать фильм Кобра-Кай бесплатно
    Кобра-Кай скачать торрент в хорошем качестве
    Кобра-Кай смотреть онлайн бесплатно в хорошем качестве


    Вы не можете начинать темы
    Вы не можете отвечать на сообщения
    Вы не можете редактировать свои сообщения
    Вы не можете удалять свои сообщения
    Вы не можете голосовать в опросах
    Вы не можете прикреплять файлы к сообщениям
    Вы можете скачивать файлы